Today is a free download without charge Download

Забавная мордашка / Funny Face [ Стенли Донен (1957) мелодрама, комедия, мюзикл , BDRip 720p]

Reply to topic
 
Author
Message

Delia ®

Gender:

Longevity: 10 years

Posts: 1821

Торрент-статистика

Post 04-May-2012 17:59

[Quote]

Забавная мордашка / Funny Face«Presented in a Real New Dimension in Motion Picture Entertainment.»--
Год выпуска: 1957
Страна: США
Жанр: мелодрама, комедия, мюзикл,...
Продолжительность: 01:43:23
Перевод: Профессиональный (многоголосый закадровый)
Субтитры: English (srt)
Режиссер: Стенли Донен
Сценарий: Леонард Герше
Продюсер: Роджер Эденс
Оператор: Рэй Джун
Композитор: Адольф Дойч, Джордж Гершвин
Художник: Джордж У. Дэвис, Хэл Перейра, Эдит Хэд, ...
Монтаж: Фрэнк Брэхт- В ролях: Одри Хепберн (Audrey Hepburn), Фред Астер (Fred Astaire), Кэй Томпсон (Kay Thompson), Мишель Оклер (Michel Auclair), Роберт Флеминг (Robert Flemyng), Довима (Dovima), Сьюзи Паркер (Suzy Parker), Санни Хартнет (Sunny Hartnett), Жан Дел Вэл (Jean Del Val), Вирджиния Гибсон (Virginia Gibson), Сью Инглэнд (Sue England), Рута Ли (Ruta Lee), Алекс Джерри (Alex Gerry), Ифиджени Кастиглиони (Iphigenie Castiglioni), Женевьева Амон (Genevieve Aumont), Ферн Бэрри (Fern Barry), Nesdon Booth, Нина Борже (Nina Borget), Жан Брэдли (Jan Bradley), Peter Camlin
Описание: История о том, как трогательная продавщица из книжного магазинчика Джоанна стала «лицом» гламурного журнала мод. И помог ей в этом фотограф того же журнала Дик. Джоанна согласилась на эту авантюру только из-за профессора Фластера, проповедующего сомнительные ценности, но, тем не менее, собравшего поклонников из многих стран.-- --Качество: BDRip 720p
Формат: MKV
Видео кодек: H.264 (AVC)
Аудио кодеk: AC3
Видео: 1280x720 (16:9), 23.976 fps, AVC, 5 290 Kbps
Аудио: Russian: AC3, 384 Kbps, 48.0 KHz, 6 ch
Аудио #2:English AC3, 384 Kbps, 48.0 KHz, 6 ch

МедиаИнфо

Код:
General
Complete name                    : Funny Face  (1957 )720p-F.HD.mkv
Format                           : Matroska
File size                        : 4.37 GiB
Duration                         : 1h 43mn
Overall bit rate                 : 6 056 Kbps
Encoded date                     : UTC 2012-05-04 13:51:16
Writing application              : mkvmerge v5.4.0 ('Piper') built on Mar 10 2012 13:34:39
Writing library                  : libebml v1.2.3 + libmatroska v1.3.0
Video
ID                               : 1
Format                           : AVC
Format/Info                      : Advanced Video Codec
Format profile                   : [email protected]
Format settings, CABAC           : Yes
Format settings, ReFrames        : 9 frames
Format settings, GOP             : M=9, N=32
Muxing mode                      : Container [email protected]
Codec ID                         : V_MPEG4/ISO/AVC
Duration                         : 1h 43mn
Bit rate                         : 5 290 Kbps
Width                            : 1 280 pixels
Height                           : 720 pixels
Display aspect ratio             : 16:9
Frame rate                       : 23.976 fps
Color space                      : YUV
Chroma subsampling               : 4:2:0
Bit depth                        : 8 bits
Scan type                        : Progressive
Bits/(Pixel*Frame)               : 0.239
Stream size                      : 3.73 GiB (85%)
Writing library                  : x264 core 122 r2184 5c85e0a
Encoding settings                : cabac=1 / ref=9 / deblock=1:-3:-2 / analyse=0x3:0x133 / me=umh / subme=10 / psy=1 / psy_rd=1.00:0.10 / mixed_ref=1 / me_range=48 / chroma_me=1 / trellis=2 / 8x8dct=1 / cqm=0 / deadzone=21,11 / fast_pskip=0 / chroma_qp_offset=-6 / threads=6 / sliced_threads=0 / nr=0 / decimate=1 / interlaced=0 / bluray_compat=0 / constrained_intra=0 / bframes=8 / b_pyramid=2 / b_adapt=2 / b_bias=0 / direct=3 / weightb=1 / open_gop=0 / weightp=2 / keyint=240 / keyint_min=23 / scenecut=40 / intra_refresh=0 / rc=2pass / mbtree=0 / bitrate=5290 / ratetol=1.0 / qcomp=0.70 / qpmin=0 / qpmax=69 / qpstep=4 / cplxblur=20.0 / qblur=0.5 / ip_ratio=1.40 / pb_ratio=1.30 / aq=2:0.80
Color primaries                  : BT.709-5, BT.1361, IEC 61966-2-4, SMPTE RP177
Transfer characteristics         : BT.709-5, BT.1361
Matrix coefficients              : BT.709-5, BT.1361, IEC 61966-2-4 709, SMPTE RP177
Audio #1
ID                               : 2
Format                           : AC-3
Format/Info                      : Audio Coding 3
Mode extension                   : CM (complete main)
Codec ID                         : A_AC3
Duration                         : 1h 43mn
Bit rate mode                    : Constant
Bit rate                         : 384 Kbps
Channel(s)                       : 6 channels
Channel positions                : Front: L C R, Side: L R, LFE
Sampling rate                    : 48.0 KHz
Bit depth                        : 16 bits
Stream size                      : 284 MiB (6%)
Title                            : MVO
Language                         : Russian
Audio #2
ID                               : 3
Format                           : AC-3
Format/Info                      : Audio Coding 3
Mode extension                   : CM (complete main)
Codec ID                         : A_AC3
Duration                         : 1h 43mn
Bit rate mode                    : Constant
Bit rate                         : 384 Kbps
Channel(s)                       : 6 channels
Channel positions                : Front: L C R, Side: L R, LFE
Sampling rate                    : 48.0 KHz
Bit depth                        : 16 bits
Stream size                      : 284 MiB (6%)
Text
ID                               : 4
Format                           : UTF-8
Codec ID                         : S_TEXT/UTF8
Codec ID/Info                    : UTF-8 Plain Text
Menu
00:00:00.000                     : en:Chapter 01
00:01:53.029                     : en:Chapter 02
00:06:52.412                     : en:Chapter 03
00:13:58.879                     : en:Chapter 04
00:17:10.195                     : en:Chapter 05
00:21:32.916                     : en:Chapter 06
00:26:22.372                     : en:Chapter 07
00:32:42.126                     : en:Chapter 08
00:39:07.470                     : en:Chapter 09
00:47:29.179                     : en:Chapter 10
00:54:52.247                     : en:Chapter 11
01:02:15.857                     : en:Chapter 12
01:10:24.762                     : en:Chapter 13
01:14:08.110                     : en:Chapter 14
01:19:01.069                     : en:Chapter 15
01:22:59.432                     : en:Chapter 16
01:30:30.049                     : en:Chapter 17
01:34:55.856                     : en:Chapter 18
01:39:20.955                     : en:Chapter 19
01:43:18.942                     : en:Chapter 20


Скриншоты

     
     

_________________
Человек – это канат, натянутый между животным и сверхчеловеком, – канат над пропастью.
В человеке ценно то, что он мост, а не цель. Фридрих Ницше
Other forum [Profile] [PM]
Display posts from previous:    
Reply to topic

The time now is: Today 00:08

All times are GMT + 3 Hours



You cannot post new topics in this forum
You cannot reply to topics in this forum
You cannot edit your posts in this forum
You cannot delete your posts in this forum
You cannot vote in polls in this forum
You cannot attach files in this forum
You cannot download files in this forum