Today is a free download without charge Download

Самаритянин / The Samaritan [ Дэвид Уивер (2012) триллер , BDRip 1080p ] | L2

Reply to topic
 
Author
Message

Delia ®

Gender:

Longevity: 11 years

Posts: 1821

Торрент-статистика

Post 03-May-2012 23:00

[Quote]

Самаритянин / The Samaritan«You've got to know a secret to tell a secret.»--
Год выпуска: 2012
Страна: Канада
Жанр: триллер, ...
Продолжительность: 01:33:09
Перевод:Любительский двухголосый закадровый
[Перевод - Чужая, озвучивание - Команда Чип и Дейл]

Режиссер: Дэвид Уивер
Сценарий: Элан Мэстай, Дэвид Уивер
Продюсер: Tony Wosk, Suzanne Cheriton, Андрас Хамори, ...
Оператор: Франсуа Дажэне
Композитор: Тодор Кобаков, David Whalen
Художник: Мэттью Дейвис, Питер Эмминк, Патрик Антош, ...
Монтаж: Джофф Ашенхёрст- В ролях: Сэмюэл Л. Джексон (Samuel L. Jackson), Люк Кирби (Luke Kirby), Рут Негга (Ruth Negga), Том Уилкинсон (Tom Wilkinson), Алан С. Петерсон (Alan C. Peterson), Джил Беллоуз (Gil Bellows), Аарон Пул (Aaron Poole), Том МакКэмус (Tom McCamus), Марта Барнс (Martha Burns), Дебора Кара Ангер (Deborah Kara Unger), Роб Арчер (Rob Archer), Диана ЛеБланк (Diana Leblanc), Руфус Кроуфорд (Rufus Crawford), Эндрю Батчер (Andrew Butcher), Фрэнк Мур (Frank Moore), Brian Stillar, Харрисон Смит (Harrison Smith), Тайлер Брюс (Tyler Bruce), Крис Гиббс (Chris Gibbs), Йонас Черник (Jonas Chernick)
Описание:Фоули, бывший мошенник, отбыв 20-летний срок в тюрьме, решает покончить с преступным прошлым. Но встречает красивую молодую женщину, с которой хочет начать жизнь заново. Однако сын бывшего напарника Фоули уговаривает его помочь ему с осуществлением одного дерзкого замысла. -Бюджет: $12 000 000
Премьера (мир): 3 марта 2012, ...-- --Качество: BDRip 1080p
Формат: MKV
Видео кодек: H.264 (AVC)
Аудио кодеk: AC3
Видео: 1920x1080 (16:9), 23.976 fps, AVC, 5 886 Kbps
Аудио: AC3, 448 Kbps, 48.0 KHz, 6 ch RUS MVO
Аудио #2: AC3, 384 Kbps, 48.0 KHz, 6 ch

МедиаИнфо

Код:
General
Complete name                    : The Samaritan(2012)1080р-F.ND.mkv
Format                           : Matroska
File size                        : 4.37 GiB
Duration                         : 1h 33mn
Overall bit rate                 : 6 713 Kbps
Encoded date                     : UTC 2012-05-03 19:03:02
Writing application              : mkvmerge v5.4.0 ('Piper') built on Mar 10 2012 13:34:39
Writing library                  : libebml v1.2.3 + libmatroska v1.3.0
Video
ID                               : 1
Format                           : AVC
Format/Info                      : Advanced Video Codec
Format profile                   : [email protected]
Format settings, CABAC           : Yes
Format settings, ReFrames        : 4 frames
Muxing mode                      : Container [email protected]
Codec ID                         : V_MPEG4/ISO/AVC
Duration                         : 1h 33mn
Bit rate                         : 5 886 Kbps
Width                            : 1 920 pixels
Height                           : 1 080 pixels
Display aspect ratio             : 16:9
Frame rate                       : 23.976 fps
Color space                      : YUV
Chroma subsampling               : 4:2:0
Bit depth                        : 8 bits
Scan type                        : Progressive
Bits/(Pixel*Frame)               : 0.118
Stream size                      : 3.74 GiB (86%)
Writing library                  : x264 core 122 r2184 5c85e0a
Encoding settings                : cabac=1 / ref=4 / deblock=1:-3:-2 / analyse=0x3:0x133 / me=umh / subme=10 / psy=1 / psy_rd=1.20:0.10 / mixed_ref=1 / me_range=48 / chroma_me=1 / trellis=2 / 8x8dct=1 / cqm=0 / deadzone=21,11 / fast_pskip=0 / chroma_qp_offset=-6 / threads=6 / sliced_threads=0 / nr=0 / decimate=0 / interlaced=0 / bluray_compat=0 / constrained_intra=0 / bframes=7 / b_pyramid=2 / b_adapt=2 / b_bias=0 / direct=3 / weightb=1 / open_gop=0 / weightp=2 / keyint=240 / keyint_min=23 / scenecut=40 / intra_refresh=0 / rc=2pass / mbtree=0 / bitrate=5886 / ratetol=1.0 / qcomp=0.70 / qpmin=0 / qpmax=69 / qpstep=4 / cplxblur=20.0 / qblur=0.5 / ip_ratio=1.40 / pb_ratio=1.20 / aq=2:0.90
Color primaries                  : BT.709-5, BT.1361, IEC 61966-2-4, SMPTE RP177
Transfer characteristics         : BT.709-5, BT.1361
Matrix coefficients              : BT.709-5, BT.1361, IEC 61966-2-4 709, SMPTE RP177
Audio #1
ID                               : 2
Format                           : AC-3
Format/Info                      : Audio Coding 3
Mode extension                   : CM (complete main)
Codec ID                         : A_AC3
Duration                         : 1h 33mn
Bit rate mode                    : Constant
Bit rate                         : 448 Kbps
Channel(s)                       : 6 channels
Channel positions                : Front: L C R, Side: L R, LFE
Sampling rate                    : 48.0 KHz
Bit depth                        : 16 bits
Stream size                      : 299 MiB (7%)
Language                         : Russian
Audio #2
ID                               : 3
Format                           : AC-3
Format/Info                      : Audio Coding 3
Mode extension                   : CM (complete main)
Codec ID                         : A_AC3
Duration                         : 1h 33mn
Bit rate mode                    : Constant
Bit rate                         : 384 Kbps
Channel(s)                       : 6 channels
Channel positions                : Front: L C R, Side: L R, LFE
Sampling rate                    : 48.0 KHz
Bit depth                        : 16 bits
Stream size                      : 256 MiB (6%)
Menu
00:00:00.000                     : en:Chapter 01
00:08:10.740                     : en:Chapter 02
00:18:17.471                     : en:Chapter 03
00:30:04.093                     : en:Chapter 04
00:40:29.635                     : en:Chapter 05
00:48:11.054                     : en:Chapter 06
00:54:21.299                     : en:Chapter 07
00:59:20.098                     : en:Chapter 08
01:06:41.831                     : en:Chapter 09
01:14:43.729                     : en:Chapter 10
01:26:26.806                     : en:Chapter 11
01:30:04.399                     : en:Chapter 12


Скриншоты

     
     

_________________
Человек – это канат, натянутый между животным и сверхчеловеком, – канат над пропастью.
В человеке ценно то, что он мост, а не цель. Фридрих Ницше
Other forum [Profile] [PM]
Display posts from previous:    
Reply to topic

The time now is: Today 15:40

All times are GMT + 3 Hours



You cannot post new topics in this forum
You cannot reply to topics in this forum
You cannot edit your posts in this forum
You cannot delete your posts in this forum
You cannot vote in polls in this forum
You cannot attach files in this forum
You cannot download files in this forum