Today is a free download without charge Download

Дневники няни / The Nanny Diaries [ Шари Спрингер Берман, Роберт Пульчини (2007) драма, мелодрама, комедия, BDRip 720p]

Reply to topic
 
Author
Message

Delia ®

Gender:

Longevity: 10 years

Posts: 1821

Торрент-статистика

Post 03-May-2012 09:21

[Quote]

Дневники няни / The Nanny Diaries«Комедия о жизни в верхах глазами тех, кто внизу.»--
Год выпуска: 2007
Страна: США
Жанр: драма, мелодрама, комедия, ...
Продолжительность: 01:44:41
Перевод: Профессиональный (дублированный)
Субтитры: Russian , English (UTF-8), Ukrainian (VobSub),
Режиссер: Шари Спрингер Берман, Роберт Пульчини
Сценарий: Шари Спрингер Берман, Роберт Пульчини, Эмма МакЛохлин, ...
Продюсер: Ричард Н. Гладштейн, Дэни Вульф, Гари Бинкоу, ...
Оператор: Терри Стэйси
Композитор: Марк Суоззо
Художник: Марк Рикер, Бен Барро, Майкл Уилкинсон, ...
Монтаж: Роберт Пульчини- В ролях: Скарлетт Йоханссон (Scarlett Johansson), Крис Эванс (Chris Evans), Лора Линни (Laura Linney), Пол Джаматти (Paul Giamatti), Николас Арт (Nicholas Art), Донна Мерфи (Donna Murphy), Алишиа Кис (Alicia Keys), Джон Генри Кокс (John Henry Cox), Льюис Пэйтон мл. (Lewis Payton Jr.), Сонни Браун (Sonnie Brown), Джорджина Чэпман (Georgina Chapman), Джоди Мишель Пинн (Jodi Michelle Pynn), Майк Рэйд (Mike Rad), Джоэнна Хеймболд (Joanna Heimbold), Марла Сухаретса (Marla Sucharetza), Фиби Йонас (Phoebe Jonas), Эллисон Сарофим (Allison Sarofim), Тина Бенко (Tina Benko), Кэди Хаффмен (Cady Huffman), Кэйтлин Хопкинс (Kaitlin Hopkins)
Описание: Молодая студентка колледжа из рабочего класса, устраиваясь подработать няней в одной из богатых семей из Манхэттэна, никак не могла предвидеть, какими сложностями всё это для неё обернётся. Изнеженная жена, вечно где-то пропадающий муж и донельзя избалованный шестилетний ребёнок постоянно становятся источниками проблем для неё.В течение девятимесячного периода её пребывания в доме отношения супругов всё больше и больше осложняются, а самой няне приходится справляться со своими учебными занятиями, семейными проблемами работодателей, собственным романтическим увлечением и избалованным малышом.-Рейтинг MPAA: -- --Качество: BDRip 720p
Формат: MKV
Видео кодек: H.264 (AVC)
Аудио кодеk: AC3
Видео: 1280x720 (16:9), 23.976 fps, AVC, 5 401 Kbps
Аудио: Russian: AC3, 384 Kbps, 48.0 KHz, 6 ch
Аудио #2: English: AC3, 192 Kbps, 48.0 KHz, 2 ch

МедиаИнфо

Код:
General
Complete name                    : The Nanny Diaries (2007)BDRip720p-F.HD.mkv
Format                           : Matroska
File size                        : 4.37 GiB
Duration                         : 1h 44mn
Overall bit rate                 : 5 982 Kbps
Encoded date                     : UTC 2012-05-02 19:54:58
Writing application              : mkvmerge v5.4.0 ('Piper') built on Mar 10 2012 13:34:39
Writing library                  : libebml v1.2.3 + libmatroska v1.3.0
Video
ID                               : 1
Format                           : AVC
Format/Info                      : Advanced Video Codec
Format profile                   : [email protected]
Format settings, CABAC           : Yes
Format settings, ReFrames        : 9 frames
Muxing mode                      : Container [email protected]
Codec ID                         : V_MPEG4/ISO/AVC
Duration                         : 1h 44mn
Bit rate                         : 5 401 Kbps
Width                            : 1 280 pixels
Height                           : 720 pixels
Display aspect ratio             : 16:9
Frame rate                       : 23.976 fps
Color space                      : YUV
Chroma subsampling               : 4:2:0
Bit depth                        : 8 bits
Scan type                        : Progressive
Bits/(Pixel*Frame)               : 0.244
Stream size                      : 3.87 GiB (88%)
Writing library                  : x264 core 122 r2184 5c85e0a
Encoding settings                : cabac=1 / ref=9 / deblock=1:-3:-2 / analyse=0x3:0x133 / me=umh / subme=11 / psy=1 / psy_rd=1.15:0.10 / mixed_ref=1 / me_range=48 / chroma_me=1 / trellis=2 / 8x8dct=1 / cqm=0 / deadzone=21,11 / fast_pskip=0 / chroma_qp_offset=-5 / threads=6 / sliced_threads=0 / nr=0 / decimate=1 / interlaced=0 / bluray_compat=0 / constrained_intra=0 / bframes=8 / b_pyramid=2 / b_adapt=2 / b_bias=0 / direct=3 / weightb=1 / open_gop=0 / weightp=2 / keyint=240 / keyint_min=23 / scenecut=40 / intra_refresh=0 / rc=2pass / mbtree=0 / bitrate=5401 / ratetol=1.0 / qcomp=0.70 / qpmin=0 / qpmax=69 / qpstep=4 / cplxblur=20.0 / qblur=0.5 / ip_ratio=1.40 / pb_ratio=1.30 / aq=2:0.90
Color primaries                  : BT.709-5, BT.1361, IEC 61966-2-4, SMPTE RP177
Transfer characteristics         : BT.709-5, BT.1361
Matrix coefficients              : BT.709-5, BT.1361, IEC 61966-2-4 709, SMPTE RP177
Audio #1
ID                               : 2
Format                           : AC-3
Format/Info                      : Audio Coding 3
Mode extension                   : CM (complete main)
Codec ID                         : A_AC3
Duration                         : 1h 44mn
Bit rate mode                    : Constant
Bit rate                         : 384 Kbps
Channel(s)                       : 6 channels
Channel positions                : Front: L C R, Side: L R, LFE
Sampling rate                    : 48.0 KHz
Bit depth                        : 16 bits
Stream size                      : 288 MiB (6%)
Language                         : Russian
Audio #2
ID                               : 3
Format                           : AC-3
Format/Info                      : Audio Coding 3
Mode extension                   : CM (complete main)
Codec ID                         : A_AC3
Duration                         : 1h 44mn
Bit rate mode                    : Constant
Bit rate                         : 192 Kbps
Channel(s)                       : 2 channels
Channel positions                : Front: L R
Sampling rate                    : 48.0 KHz
Bit depth                        : 16 bits
Stream size                      : 144 MiB (3%)
Text #1
ID                               : 4
Format                           : UTF-8
Codec ID                         : S_TEXT/UTF8
Codec ID/Info                    : UTF-8 Plain Text
Language                         : Russian
Text #2
ID                               : 5
Format                           : VobSub
Codec ID                         : S_VOBSUB
Codec ID/Info                    : The same subtitle format used on DVDs
Language                         : Ukrainian
Text #3
ID                               : 6
Format                           : UTF-8
Codec ID                         : S_TEXT/UTF8
Codec ID/Info                    : UTF-8 Plain Text
Menu
00:00:00.000                     : en:Chapter 01
00:12:15.733                     : en:Chapter 02
00:21:58.316                     : en:Chapter 03
00:30:49.055                     : en:Chapter 04
00:44:40.219                     : en:Chapter 05
00:52:29.020                     : en:Chapter 06
01:04:17.895                     : en:Chapter 07
01:13:31.823                     : en:Chapter 08
01:25:34.087                     : en:Chapter 09
01:36:16.312                     : en:Chapter 10

Знаете ли Вы, что...

» Создатели фильма сообщают, что концовка экранизации будет отличаться от финала книги на 100 %.
» В книге имя главной героини - Нэн (Nan); созвучно с английским the Nanny - няня.
» Другие отличия от книги: по сюжету фильма Энни уже закончит колледж; до того, как переехать к семейству Х, она будет жить со своей матерью, подрабатывающей медсестрой; Энни будет скрывать от матери, что она работает няней: по легенде она - банковский служащий.
» Всё повествование в фильме озвучивается закадровым голосом Скарлетт Йоханссон.
» Съемки фильма проходили в апреле-мае 2006 года в городе Нью-Йорке. Во время работы у Скарлетт Йоханссон произошел курьёзный эпизод, связанный с мэром города Майклом Блумбергом. Городские власти провозгласили новую налоговую политику города в целях привлечения кинопроизводства в Нью-Йорк, в связи с чем была созвана конференция совместно со съёмочной группой «Дневников няни». Однако в самый последний момент, когда мэр Блумберг заявил публике, насколько он «счастлив оказаться рядом с такой красоткой как Скарлетт», самой Скарлетт рядом не оказалось: актриса в тот момент работала на съёмочной площадке, проигнорировав пресс-конференцию. В ответ на небольшой скандал, вызванный этим событием, Йоханссон заявила: «Production always comes first» (Съемки превыше всего).


Скриншоты

     
     

_________________
Человек – это канат, натянутый между животным и сверхчеловеком, – канат над пропастью.
В человеке ценно то, что он мост, а не цель. Фридрих Ницше
Other forum [Profile] [PM]
Display posts from previous:    
Reply to topic

The time now is: Today 12:31

All times are GMT + 3 Hours



You cannot post new topics in this forum
You cannot reply to topics in this forum
You cannot edit your posts in this forum
You cannot delete your posts in this forum
You cannot vote in polls in this forum
You cannot attach files in this forum
You cannot download files in this forum