Today is a free download without charge Download

Эон Флакс / Æon Flux (Карин Кусама / Karyn Kusama) [ 2005, фантастика, боевик, приключения, BDRip] [H.264/720р-LQ]

Reply to topic
 
Author
Message

Omen ®

Longevity: 8 years

Posts: 181087

Торрент-статистика

Post 02-May-2012 12:32

[Quote]

Эон Флакс
Æon Flux
-
Русское название: Эон Флакс
Оригинальное название: AEon Flux
Год выпуска: 2005
Страна: США
Жанр: Фантастика, Боевик, Триллер-Описание фильма:
В 25-ом веке свирепый вирус уничтожил большую часть человечества, а оставшихся в живых заставил изолироваться в одном-единственном городе, защищенном специальным куполом. Именно там действует таинственный агент Иэн Флакс, мотивы которой необъяснимы, а главной целью является видный политический деятель…-Режиссер: Карин Кусама
Актеры: Шарлиз Терон, Мартон Чокаш, Джонни Ли Миллер, Софи Оконедо, Фрэнсис МакДорманд, Пит Постлетуэйт, Амелия Уорнер, Кэролайн Чикези, Николай Кински-Продолжительность: 01:32:51
Перевод: Профессиональный (полное дублирование)
Релиз группа: - -Дата мировой премьеры: 1 декабря 2005
Дата российской премьеры: 1 декабря 2005, «UIP»-Видеокодек: MPEG-4 AVC/H.264
Битрейт видео: ~3012 Кбит/сек
Размер кадра: 1280x544
Качество видео: BDRip
Аудиокодек: AC3 5.1
Битрейт аудио: 448 Кбит/сек
-

MediaInfo:

Код:
Общее
Уникальный идентификатор                 : 191964966064572019057011198129508935539 (0x906B1B8E681DDA63861A8F06BAAB6773)
Полное имя                               : Эон Флакс.2005.x.264.BDRip 720p.mkv
Формат                                   : Matroska
Версия формата                           : Version 2
Размер файла                             : 2,22 Гбайт
Продолжительность                        : 1 ч. 32 м.
Режим общего битрейта                    : Переменный
Общий поток                              : 3427 Кбит/сек
Название фильма                          : Rip by herrower
Дата кодирования                         : UTC 2011-02-27 09:08:06
Программа кодирования                    : mkvmerge v3.0.0 ('Hang up your Hang-Ups') built on Dec 12 2009 15:20:35
Библиотека кодирования                   : libebml v0.7.9 + libmatroska v0.8.1
Видео
Идентификатор                            : 1
Формат                                   : AVC
Формат/Информация                        : Advanced Video Codec
Профиль формата                          : [url=mailto:[email protected]][email protected][/url]
Параметр CABAC формата                   : Да
Параметр ReFrames формата                : 3 кадра
Идентификатор кодека                     : V_MPEG4/ISO/AVC
Продолжительность                        : 1 ч. 32 м.
Вид битрейта                             : Переменный
Битрейт                                  : 3012 Кбит/сек
Максимальный битрейт                     : 17,5 Мбит/сек
Ширина                                   : 1280 пикселей
Высота                                   : 544 пикселя
Соотношение сторон                       : 2,35:1
Частота кадров                           : 23,976 кадра/сек
Цветовое пространство                    : YUV
Субдискретизация насыщенности            : 4:2:0
Битовая глубина                          : 8 бит
Тип развёртки                            : Прогрессивная
Бит/(Пиксели*Кадры)                      : 0.180
Размер потока                            : 1,89 Гбайт (85%)
Библиотека кодирования                   : x264 core 112 r1867 22bfd31
Настройки программы                      : cabac=1 / ref=1 / deblock=1:0:0 / analyse=0x3:0x3 / me=dia / subme=1 / psy=1 / psy_rd=0.00:0.00 / mixed_ref=0 / me_range=16 / chroma_me=1 / trellis=0 / 8x8dct=1 / cqm=0 / deadzone=21,11 / fast_pskip=1 / chroma_qp_offset=0 / threads=3 / sliced_threads=0 / nr=0 / decimate=1 / interlaced=0 / constrained_intra=0 / bframes=3 / b_pyramid=1 / b_adapt=1 / b_bias=0 / direct=1 / weightb=1 / open_gop=0 / weightp=1 / keyint=24 / keyint_min=1 / scenecut=40 / intra_refresh=0 / rc_lookahead=0 / rc=abr / mbtree=0 / bitrate=3012 / ratetol=1.0 / qcomp=0.60 / qpmin=0 / qpmax=51 / qpstep=4 / vbv_maxrate=17500 / vbv_bufsize=14500 / nal_hrd=vbr / ip_ratio=1.10 / pb_ratio=1.10 / aq=1:1.00
Default                                  : Да
Forced                                   : Нет
Аудио
Идентификатор                            : 2
Формат                                   : AC-3
Формат/Информация                        : Audio Coding 3
Расширение режима                        : CM (complete main)
Параметр Endianness формата              : Big
Идентификатор кодека                     : A_AC3
Продолжительность                        : 1 ч. 32 м.
Вид битрейта                             : Постоянный
Битрейт                                  : 448 Кбит/сек
Каналы                                   : 6 каналов
Расположение каналов                     : Front: L C R, Side: L R, LFE
Частота                                  : 48,0 КГц
Битовая глубина                          : 16 бит
Метод сжатия                             : С потерями
Размер потока                            : 298 Мбайт (13%)
Заголовок                                : AC3 5.1 448 kbps Дубляж
Язык                                     : Russian
Default                                  : Да
Forced                                   : Нет
-Скриншоты:
         
         
Other forum [Profile] [PM]
Display posts from previous:    
Reply to topic

The time now is: Today 23:37

All times are GMT + 3 Hours



You cannot post new topics in this forum
You cannot reply to topics in this forum
You cannot edit your posts in this forum
You cannot delete your posts in this forum
You cannot vote in polls in this forum
You cannot attach files in this forum
You cannot download files in this forum