Today is a free download without charge Download

Тормоз / Brake [ Гейб Торрес (2012) боевик, триллер, BDRip 1080p]

Reply to topic
 
Author
Message

Delia ®

Gender:

Longevity: 10 years

Posts: 1821

Торрент-статистика

Post 02-May-2012 10:28

[Quote]

Тормоз / Brake--
Год выпуска: 2012
Страна: США
Жанр: боевик, триллер
Продолжительность: 01:31:18
Перевод: Профессиональный (многоголосый закадровый)
Субтитры: Russian (srt)
Режиссер: Гейб Торрес
Сценарий: Тимоти Мэннион
Продюсер: Гейб Торрес, Джеймс Уолкер, Натан Уэст, ...
Оператор: Джеймс Мэтерс
Композитор: Брайан Тайлер
Художник: Джон Мотт, София Хименез, Марси Грэйс Фрохлих
Монтаж: Сэм Рестиво- В ролях: Стивен Дорфф (Stephen Dorff), Кайлер Ли (Chyler Leigh), ДжейАр Борн (JR Bourne), Том Беренджер (Tom Berenger), Bobby Tomberlin, Кали Роча (Kali Rocha), Марк Уоллес (King Orba), Прюитт Тэйлор Винс (Pruitt Taylor Vince), Сэмми Шейк (Sammy Sheik), Кент Шокнек (Kent Shocknek), Джейлен Мур (Jaylen Moore), Стефен Дж. Бриджуотер (Stephen J. Bridgewater), Matthew Pollino, Джейсон Рафаэль (Jason Raphael), Марисоль Де Иисус (Marisol de Jesus), Jamie Fishback, Майкл Франклин (Michael Franklin)
Описание: Секретного агента Джереми Рейнса похищают загадочные незнакомцы. Одного из лучших мастеров своего дела обвели вокруг пальца и используют в качестве приманки в террористической операции. Жизнь Джереми и всей его семьи — на волоске. Счет идет на минуты, и у него остается все меньше и меньше времени, чтобы сдать похитителям секретную информацию, которую он поклялся хранить ценой собственной жизни.-- --Качество: BDRip
Формат: MKV
Видео кодек: H.264 (AVC)
Аудио кодеk: AC3
Видео: 1920x1080 (16:9), 23.976 fps, AVC, 6 088 Kbps
Аудио: AC3, 384 Kbps, 48.0 KHz, 6 ch | RUS
Аудио #2: AC3, 384 Kbps, 48.0 KHz, 6 ch | ENG

МедиаИнфо

Код:
General
Complete name                    : Brake (2012) BDRip-F.HD.mkv
Format                           : Matroska
File size                        : 4.37 GiB
Duration                         : 1h 31mn
Overall bit rate                 : 6 847 Kbps
Encoded date                     : UTC 2012-05-02 06:36:01
Writing application              : mkvmerge v5.4.0 ('Piper') built on Mar 10 2012 13:34:39
Writing library                  : libebml v1.2.3 + libmatroska v1.3.0
Video
ID                               : 1
Format                           : AVC
Format/Info                      : Advanced Video Codec
Format profile                   : [email protected]
Format settings, CABAC           : Yes
Format settings, ReFrames        : 4 frames
Muxing mode                      : Container [email protected]
Codec ID                         : V_MPEG4/ISO/AVC
Duration                         : 1h 31mn
Bit rate                         : 6 088 Kbps
Width                            : 1 920 pixels
Height                           : 1 080 pixels
Display aspect ratio             : 16:9
Frame rate                       : 23.976 fps
Color space                      : YUV
Chroma subsampling               : 4:2:0
Bit depth                        : 8 bits
Scan type                        : Progressive
Bits/(Pixel*Frame)               : 0.122
Stream size                      : 3.79 GiB (87%)
Writing library                  : x264 core 122 r2184 5c85e0a
Encoding settings                : cabac=1 / ref=4 / deblock=1:-3:-2 / analyse=0x3:0x133 / me=umh / subme=10 / psy=1 / psy_rd=1.00:0.10 / mixed_ref=1 / me_range=32 / chroma_me=1 / trellis=2 / 8x8dct=1 / cqm=0 / deadzone=21,11 / fast_pskip=0 / chroma_qp_offset=-3 / threads=6 / sliced_threads=0 / nr=0 / decimate=0 / interlaced=0 / bluray_compat=0 / constrained_intra=0 / bframes=8 / b_pyramid=2 / b_adapt=2 / b_bias=0 / direct=3 / weightb=1 / open_gop=0 / weightp=2 / keyint=240 / keyint_min=23 / scenecut=40 / intra_refresh=0 / rc=2pass / mbtree=0 / bitrate=6088 / ratetol=1.0 / qcomp=0.70 / qpmin=0 / qpmax=69 / qpstep=4 / cplxblur=20.0 / qblur=0.5 / ip_ratio=1.40 / pb_ratio=1.20 / aq=2:0.90
Color primaries                  : BT.709-5, BT.1361, IEC 61966-2-4, SMPTE RP177
Transfer characteristics         : BT.709-5, BT.1361
Matrix coefficients              : BT.709-5, BT.1361, IEC 61966-2-4 709, SMPTE RP177
Audio #1
ID                               : 2
Format                           : AC-3
Format/Info                      : Audio Coding 3
Mode extension                   : CM (complete main)
Codec ID                         : A_AC3
Duration                         : 1h 31mn
Bit rate mode                    : Constant
Bit rate                         : 384 Kbps
Channel(s)                       : 6 channels
Channel positions                : Front: L C R, Side: L R, LFE
Sampling rate                    : 48.0 KHz
Bit depth                        : 16 bits
Stream size                      : 251 MiB (6%)
Language                         : Russian
Audio #2
ID                               : 3
Format                           : AC-3
Format/Info                      : Audio Coding 3
Mode extension                   : CM (complete main)
Codec ID                         : A_AC3
Duration                         : 1h 31mn
Bit rate mode                    : Constant
Bit rate                         : 384 Kbps
Channel(s)                       : 6 channels
Channel positions                : Front: L C R, Side: L R, LFE
Sampling rate                    : 48.0 KHz
Bit depth                        : 16 bits
Stream size                      : 251 MiB (6%)
Text
ID                               : 4
Format                           : UTF-8
Codec ID                         : S_TEXT/UTF8
Codec ID/Info                    : UTF-8 Plain Text
Language                         : Russian


Скриншоты

     
     

_________________
Человек – это канат, натянутый между животным и сверхчеловеком, – канат над пропастью.
В человеке ценно то, что он мост, а не цель. Фридрих Ницше
Other forum [Profile] [PM]
Display posts from previous:    
Reply to topic

The time now is: Today 18:06

All times are GMT + 3 Hours



You cannot post new topics in this forum
You cannot reply to topics in this forum
You cannot edit your posts in this forum
You cannot delete your posts in this forum
You cannot vote in polls in this forum
You cannot attach files in this forum
You cannot download files in this forum