Today is a free download without charge Download

Человек-амфибия (Владимир Чеботарев, Геннадий Казанский) [1961, фантастика, фэнтези, мелодрама, BDRip, 1080p]

Reply to topic
 
Author
Message

NarDok ®

Longevity: 9 years 8 months

Posts: 914

Торрент-статистика

Post 12-Jun-2015 20:57

[Quote]

Человек-амфибия -- Производство: Ленфильм / СССР
Жанр: фантастика, фэнтези, мелодрама
Режиссер: Владимир Чеботарев, Геннадий Казанский
Актеры: Владимир Коренев, Анастасия Вертинская, Михаил Козаков, Николай Симонов, Владлен Давыдов, Анатолий Смиранин, А. Антонян, Анатолий Иванов, Валерий Кудряшов, Николай Кузьмин
Описание:
Однажды талантливый ученый доктор Сальватор спас жизнь маленькому мальчику, пересадив ему жабры акулы. С этого дня Ихтиандр, так назвал своего приемного сына ученый, мог плавать под водой, как рыба, нырять на любую глубину, но ему было тяжело подолгу находиться на суше... Годы спустя по тихому морскому городу поползли слухи о странном существе, наводящем ужас на всех рыбаков, o «морском дьяволе». В это же самое время в городе появляется молодой человек, который мало общается с людьми и прекрасно плавает. Он знакомится с дочерью бедного ныряльщика за жемчугом, красавицей Гутиэре и без памяти в нее влюбляется...

Возраст: 16+
Релиз от: (HDCLUB)
Продолжительность: 01:36:21
Качество: BDRip 1080p
Субтитры: Отсутствуют
Чаптеры: (Главы): Есть
Видео: 1480x1080 at 23.976 fps, 2pass, ~11999 kbps avg
Аудио#1: 48 kHz, DTS, 6 ch, ~1536.00 kbps (Russian)
Аудио#2: 48 kHz, AC3, 1.0 (C) ch, ~192.00 kbps (Russian)

MediaInfo:

Код:
General
Complete name                    : Chelovek-Amfibiya.1961.1080p.BDRIp.mkv
Format                           : Matroska
File size                        : 9.22 GiB
Duration                         : 1h 36mn
Overall bit rate                 : 13.7 Mbps
Encoded date                     : UTC 2011-08-06 09:15:51
Writing application              : mkvmerge v4.9.1 ('Ich will') built on Jul 11 2011 23:53:15
Writing library                  : libebml v1.2.1 + libmatroska v1.1.1
Cover                            : Yes / Yes
Video
ID                               : 1
Format                           : AVC
Format/Info                      : Advanced Video Codec
Format profile                   : [url=mailto:[email protected]][email protected][/url]
Format settings, CABAC           : Yes
Format settings, ReFrames        : 4 frames
Muxing mode                      : Container [email protected]
Codec ID                         : V_MPEG4/ISO/AVC
Duration                         : 1h 36mn
Bit rate                         : 12.0 Mbps
Width                            : 1 480 pixels
Height                           : 1 080 pixels
Display aspect ratio             : 1.370
Frame rate                       : 23.976 fps
Color space                      : YUV
Chroma subsampling               : 4:2:0
Bit depth                        : 8 bits
Scan type                        : Progressive
Bits/(Pixel*Frame)               : 0.313
Stream size                      : 7.89 GiB (86%)
Writing library                  : x264 core 116 r2044 392e762
Encoding settings                : cabac=1 / ref=4 / deblock=1:-3:-3 / analyse=0x3:0x113 / me=umh / subme=11 / psy=1 / psy_rd=1.00:0.00 / mixed_ref=1 / me_range=24 / chroma_me=1 / trellis=2 / 8x8dct=1 / cqm=0 / deadzone=21,11 / fast_pskip=0 / chroma_qp_offset=-2 / threads=12 / sliced_threads=0 / nr=0 / decimate=0 / interlaced=0 / bluray_compat=0 / constrained_intra=0 / bframes=7 / b_pyramid=2 / b_adapt=2 / b_bias=0 / direct=3 / weightb=1 / open_gop=0 / weightp=2 / keyint=250 / keyint_min=23 / scenecut=40 / intra_refresh=0 / rc_lookahead=60 / rc=2pass / mbtree=0 / bitrate=12000 / ratetol=1.0 / qcomp=0.60 / qpmin=0 / qpmax=69 / qpstep=4 / cplxblur=20.0 / qblur=0.5 / vbv_maxrate=50000 / vbv_bufsize=62500 / nal_hrd=none / ip_ratio=1.40 / pb_ratio=1.30 / aq=1:1.00
Language                         : Russian
Color primaries                  : BT.709-5, BT.1361, IEC 61966-2-4, SMPTE RP177
Transfer characteristics         : BT.709-5, BT.1361
Matrix coefficients              : BT.709-5, BT.1361, IEC 61966-2-4 709, SMPTE RP177
Audio #1
ID                               : 2
Format                           : DTS
Format/Info                      : Digital Theater Systems
Codec ID                         : A_DTS
Duration                         : 1h 36mn
Bit rate mode                    : Constant
Bit rate                         : 1 510 Kbps
Channel(s)                       : 6 channels
Channel positions                : Front: L C R, Side: L R, LFE
Sampling rate                    : 48.0 KHz
Bit depth                        : 24 bits
Stream size                      : 1.02 GiB (11%)
Title                            : DTS 5.1 @ 1509 kbps
Language                         : Russian
Audio #2
ID                               : 3
Format                           : AC-3
Format/Info                      : Audio Coding 3
Mode extension                   : CM (complete main)
Codec ID                         : A_AC3
Duration                         : 1h 36mn
Bit rate mode                    : Constant
Bit rate                         : 192 Kbps
Channel(s)                       : 1 channel
Channel positions                : Front: C
Sampling rate                    : 48.0 KHz
Bit depth                        : 16 bits
Stream size                      : 132 MiB (1%)
Title                            : AC3 1.0 @ 192 kbps
Language                         : Russian
Menu
00:00:00.000                     : en:Chapter 1
00:03:35.632                     : en:Chapter 2
00:10:10.609                     : en:Chapter 3
00:18:44.414                     : en:Chapter 4
00:23:54.057                     : en:Chapter 5
00:31:00.358                     : en:Chapter 6
00:35:35.842                     : en:Chapter 7
00:42:37.179                     : en:Chapter 8
00:49:00.020                     : en:Chapter 9
00:56:12.285                     : en:Chapter 10
01:00:03.266                     : en:Chapter 11
01:08:54.296                     : en:Chapter 12
01:13:59.977                     : en:Chapter 13
01:20:03.882                     : en:Chapter 14
01:26:44.866                     : en:Chapter 15

Знаете ли Вы, что...

• Занимает по посещаемости 11-е место среди отечественных фильмов за всю историю советского кинопроката.
• Сценарий фильма «Человек-амфибия» несколько лет лежал в киностудии «Ленфильм». Никто не хотел браться за съёмки ввиду технических сложностей. Режиссёр Владимир Чеботарёв к тому времени уже имел опыт работы в научно-популярном кино, где проводил подводные съёмки. У него родилась идея что актёрам можно погружаться с аквалангом, потом, отсоединив баллон и загубник, переходить в свободное плавание. Таким образом, у оператора есть около минуты, чтобы снять очередной дубль. В роли консультанта фильма и, в последствии, каскадёра выступил известный спортсмен-дайвер Рэм Стукалов.
• Для съёмок была найдена бухта Ласпи (Крымский полуостров) с достаточно прозрачной водой. Была куплена старая рыболовецкая шхуна и организован вольер для дельфинов.
• Актёры Владимр Коренев и Анастасия Вертинская прошли долгие тренировки подводного плавания в бассейне и затем начали съёмки. Тем не менее съёмочная группа не раз подвергалась опасности из-за сложности работы под водой. В эпизоде, когда Ихтиандр опускается под воду на цепи, матрос не уследил за ней, выпустил из рук, и многометровая железная цепь чуть не утащила ко дну Владимира Коренева, но, к счастью, его подстраховали.

Доп. информация:

Полная реставрация изображения и звука. Исходные киноматериалы подготовлены Гостелерадиофондом России. Покадровая цифровая реставрация изображения, ремастеринг звука и авторинг проведены объединением «Крупный план».

Соотношение сторон экрана:

Скриншоты:        

_________________

Other forum [Profile] [PM]
Similar theme
Forum Topic Author Torrent Replies Last Post
./templates/default/images/folder_dl.gif Зарубежное кино (HD Video) Бюро человечества / The Humanity Bureau (Роб В. Кинг) [2017, фантастика, боевик, BDRip 720p] MVO (iTunes) + Original Kon912
1 | 0

0 | 178

0

2020-06-30 22:56
Kon912 Latest
Display posts from previous:    
Reply to topic

The time now is: Today 22:25

All times are GMT + 3 Hours



You cannot post new topics in this forum
You cannot reply to topics in this forum
You cannot edit your posts in this forum
You cannot delete your posts in this forum
You cannot vote in polls in this forum
You cannot attach files in this forum
You cannot download files in this forum