Today is a free download without charge Download

Двое (Анатолий Матешко) [2010, Россия, Украина, военный, DVD5] R5 Original Rus

Reply to topic
 
Author
Message

Koralina ®

Longevity: 10 years

Posts: 994

Location: Lithuania

Торрент-статистика

Post 01-May-2012 13:23

[Quote]

Двое
Страна: Россия, Украина
Жанр: военный
Год выпуска: 2010
Российская премьера: 9 мая 2010
Дата выхода DVD: 26 апреля 2012, «New Dream media»
Продолжительность: 01:28:38
Перевод: Оригинал [Лицензия]
Cубтитры: нет
Оригинальная аудиодорожка: русский
Режиссер: Анатолий Матешко
В ролях: Андрей Мерзликин, Сергей Калантай, Олеся Власова, Сергей Мищенко
Описание: Партизаны получают задание захватить на глухой лесной дороге новый шифровальный аппарат немцев. В результате ожесточенного боя гибнут почти все немцы и партизаны. В живых остается только офицер-шифровальщик Герберт и молодой партизан Алексей Бурьян.

Качество: DVD5 R5
Формат: DVD-Video
Видео кодек: MPEG2
Аудио кодек: AC3
Видео: PAL 16:9 (720x576(0.657)) MPEG Video, 25,000 кадр/сек, 6813 Кбит/сек
Аудио: Russian (Dolby AC3, 6 ch) 448 Кбит/сек, 48,0 КГц

DVDInfo

Title:
Size: 4.14 Gb ( 4 342 618 KBytes ) - DVD-5
Enabled regions: 1, 2, 3, 4, 5, 6, 7, 8
VTS_01 :
Play Length: 01:28:38
Video: PAL 16:9 (720x576) VBR, Auto Letterboxed
Audio:
Russian (Dolby AC3, 6 ch)
Menu Video:
PAL 16:9 (720x576) VBR
Auto Letterboxed
Menu Audio:
Not specified (Dolby AC3, 2 ch)
Menu Subtitles:
Not specified
Menu English Language Unit :
Root Menu

MediaInfo

Общее
Полное имя : J:\Новинки 2012\Dvoe.2010.DVD5\VIDEO_TS\VTS_01_1.VOB
Формат : MPEG-PS
Размер файла : 1024 Мбайт
Продолжительность : 19 м.
Режим общего битрейта : Переменный
Общий поток : 7408 Кбит/сек
Видео
Идентификатор : 224 (0xE0)
Формат : MPEG Video
Версия формата : Version 2
Профиль формата : [email protected]
Параметр BVOP формата : Да
Параметр матрицы формата : Выборочная
Продолжительность : 19 м.
Вид битрейта : Переменный
Битрейт : 6813 Кбит/сек
Максимальный битрейт : 8000 Кбит/сек
Ширина : 720 пикселей
Высота : 576 пикселей
Соотношение сторон : 16:9
Частота кадров : 25,000 кадров/сек
Стандарт вещания : PAL
Цветовое пространство : YUV
Субдискретизация насыщенности : 4:2:0
Битовая глубина : 8 бит
Тип развёртки : Чересстрочная
Порядок развёртки : Верхнее поле первое
Метод сжатия : С потерями
Бит/(Пиксели*Кадры) : 0.657
Размер потока : 942 Мбайт (92%)
Аудио
Идентификатор : 189 (0xBD)-128 (0x80)
Формат : AC-3
Формат/Информация : Audio Coding 3
Расширение режима : CM (complete main)
Параметр Endianness формата : Big
Режим смешивания : DVD-Video
Продолжительность : 19 м.
Вид битрейта : Постоянный
Битрейт : 448 Кбит/сек
Каналы : 6 каналов
Расположение каналов : Front: L C R, Side: L R, LFE
Частота : 48,0 КГц
Битовая глубина : 16 бит
Метод сжатия : С потерями
Размер потока : 61,9 Мбайт (6%)

Скриншоты меню

   

Скриншоты фильма

               

_________________
Other forum [Profile] [PM]

Lidij5

Longevity: 10 years

Posts: 70

Location: Челябинск

Торрент-статистика

Post 01-May-2012 15:50 (after 2 hours 26 minutes)

[Quote]

Спасибо! Так сейчас нужны фильмы о ВОВ, тем более не надо перекодировать! Слов нет, спасибо!

_________________
Сколько корову шоколадом не корми - какао не выдоишь!
Other forum [Profile] [PM]

Lidij5

Longevity: 10 years

Posts: 70

Location: Челябинск

Торрент-статистика

Post 01-May-2012 18:24 (after 2 hours 34 minutes)

[Quote]

Если есть возможность, выложите репак Фотошоп 13-й версии!

_________________
Сколько корову шоколадом не корми - какао не выдоишь!
Other forum [Profile] [PM]

Lidij5

Longevity: 10 years

Posts: 70

Location: Челябинск

Торрент-статистика

Post 01-May-2012 20:01 (after 1 hour 37 minutes)

[Quote]

Я давно заметила, что на вопросы вы не отвечаете. Вывод: или вы безграмотны и вам ответить нечего,или вы не следите за своими релизами, или неуважительное отношение к потребителям! С этого момента ваши релизы не замечаю и закажу другим! Сей треккер славится своей недоброжелательностью, вы добавили уверенность в этом!

_________________
Сколько корову шоколадом не корми - какао не выдоишь!
Other forum [Profile] [PM]

Koralina ®

Longevity: 10 years

Posts: 994

Location: Lithuania

Торрент-статистика

Post 01-May-2012 21:35 (after 1 hour 33 minutes)

[Quote]

Lidij5, У вас что, мания величия....? Человек не может сидеть весь день на трекере и ждать отзывов. Имейте терпение. По поводу репака..., я думаю на трекере можно найти, а если и нет, то как только появится такая возможность, обязательно выложим.

_________________
Other forum [Profile] [PM]
Display posts from previous:    
Reply to topic

The time now is: Today 19:10

All times are GMT + 3 Hours



You cannot post new topics in this forum
You cannot reply to topics in this forum
You cannot edit your posts in this forum
You cannot delete your posts in this forum
You cannot vote in polls in this forum
You cannot attach files in this forum
You cannot download files in this forum