Today is a free download without charge Download

Левиафан / Leviafan (Андрей Звягинцев) [2014, Россия, драма, BDRip 1080p] + (Dub Fre) + Sub (Eng, Fre, Esp)

Reply to topic
 
Author
Message

Omen ®

Longevity: 8 years 10 months

Posts: 181086

Торрент-статистика

Post 10-Jun-2015 21:00

[Quote]

Левиафан / Leviafan
Страна: Россия
Жанр: драма
Год выпуска: 2014
Продолжительность: 02:21:26
Перевод: Не требуется
Дополнительная аудиодорожка Французский дубляж
Cубтитры: английские, французские, испанские--Режиссер: Андрей Звягинцев--В ролях: Алексей Серебряков, Елена Лядова, Владимир Вдовиченков, Роман Мадянов, Анна Уколова, Алексей Розин, Сергей Походаев, Платон Каменев, Сергей Бачурский, Валерий Гришко...--Описание: В центре истории — живущий на севере Николай, который вместе с отцом построил дом и мастерскую. Но его нормальная жизнь рушится под влиянием судьбы.--Доп. информация: Kinopoisk | IMDB | Sample--Тип релиза: BDRip 1080p Источник: Левиафан (2014) Blu-ray 1080p AVC DTS-HD 5.1-HDCLUB
Контейнер: MKV
Видео: MPEG4/AVC, 1920x802, 24.000 fps, 10.4 Mbps, 0.280 bit/pixel.
Аудио 1: DTS, 3/2 (L,C,R,l,r) + LFE ch, 1509 kbps, 48 kHz, 24 bits.
Аудио 2: AC3, 3/2 (L,C,R,l,r) + LFE ch, 640 kbps, 48 kHz, 16 bits.
Формат субтитров: softsub (SRT)

MediaInfo

General
Unique ID : 205349259410066319704486749339633981154 (0x9A7CD42AA2913DA291B9A6CE99EA16E2)
Complete name : Левиафан (2014).mkv
Format : Matroska
Format version : Version 4 / Version 2
File size : 12.6 GiB
Duration : 2h 21mn
Overall bit rate : 12.7 Mbps
Movie name : Левиафан / Leviafan (2014)
Encoded date : UTC 2015-06-10 15:11:07
Writing application : mkvmerge v7.8.0 ('River Man') 64bit built on Mar 27 2015 16:31:37
Writing library : libebml v1.3.1 + libmatroska v1.4.2
Attachements : cover.png
DURATION : 02:21:27.072000000
NUMBER_OF_FRAMES : 265221
NUMBER_OF_BYTES : 678965760
_STATISTICS_WRITING_APP : mkvmerge v7.8.0 ('River Man') 64bit built on Mar 27 2015 16:31:37
_STATISTICS_WRITING_DATE_UT : 2015-06-10 15:11:07
_STATISTICS_TAGS : BPS DURATION NUMBER_OF_FRAMES NUMBER_OF_BYTES
Video
ID : 1
Format : AVC
Format/Info : Advanced Video Codec
Format profile : [email protected]
Format settings, CABAC : Yes
Format settings, ReFrames : 5 frames
Codec ID : V_MPEG4/ISO/AVC
Duration : 2h 21mn
Bit rate : 10.3 Mbps
Width : 1 920 pixels
Height : 802 pixels
Display aspect ratio : 2.40:1
Frame rate mode : Constant
Frame rate : 24.000 fps
Color space : YUV
Chroma subsampling : 4:2:0
Bit depth : 8 bits
Scan type : Progressive
Bits/(Pixel*Frame) : 0.280
Stream size : 10.2 GiB (81%)
Writing library : x264 core 144 r2525 40bb568
Encoding settings : cabac=1 / ref=5 / deblock=1:-3:-3 / analyse=0x3:0x133 / me=tesa / subme=11 / psy=1 / psy_rd=1.00:0.00 / mixed_ref=1 / me_range=24 / chroma_me=1 / trellis=2 / 8x8dct=1 / cqm=0 / deadzone=21,11 / fast_pskip=0 / chroma_qp_offset=-2 / threads=12 / lookahead_threads=2 / sliced_threads=0 / nr=0 / decimate=1 / interlaced=0 / bluray_compat=0 / constrained_intra=0 / bframes=8 / b_pyramid=2 / b_adapt=2 / b_bias=0 / direct=1 / weightb=1 / open_gop=0 / weightp=2 / keyint=250 / keyint_min=24 / scenecut=40 / intra_refresh=0 / rc=crf / mbtree=0 / crf=18.0 / qcomp=0.60 / qpmin=0 / qpmax=69 / qpstep=4 / ip_ratio=1.40 / pb_ratio=1.30 / aq=1:1.00
Language : Russian
Default : Yes
Forced : No
DURATION : 02:21:27.042000000
NUMBER_OF_FRAMES : 203689
NUMBER_OF_BYTES : 11240316060
_STATISTICS_WRITING_APP : mkvmerge v7.8.0 ('River Man') 64bit built on Mar 27 2015 16:31:37
_STATISTICS_WRITING_DATE_UT : 2015-06-10 15:11:07
_STATISTICS_TAGS : BPS DURATION NUMBER_OF_FRAMES NUMBER_OF_BYTES
Audio #1
ID : 2
Format : DTS
Format/Info : Digital Theater Systems
Mode : 16
Format settings, Endianness : Big
Codec ID : A_DTS
Duration : 2h 21mn
Bit rate mode : Constant
Bit rate : 1 509 Kbps
Channel(s) : 6 channels
Channel positions : Front: L C R, Side: L R, LFE
Sampling rate : 48.0 KHz
Bit depth : 24 bits
Compression mode : Lossy
Stream size : 1.49 GiB (12%)
Language : Russian
Default : Yes
Forced : No
Audio #2
ID : 3
Format : AC-3
Format/Info : Audio Coding 3
Mode extension : CM (complete main)
Format settings, Endianness : Big
Codec ID : A_AC3
Duration : 2h 21mn
Bit rate mode : Constant
Bit rate : 640 Kbps
Channel(s) : 6 channels
Channel positions : Front: L C R, Side: L R, LFE
Sampling rate : 48.0 KHz
Bit depth : 16 bits
Compression mode : Lossy
Stream size : 648 MiB (5%)
Language : French
Default : No
Forced : No
Text #1
ID : 4
Format : UTF-8
Codec ID : S_TEXT/UTF8
Codec ID/Info : UTF-8 Plain Text
Language : English
Default : No
Forced : No
Text #2
ID : 5
Format : UTF-8
Codec ID : S_TEXT/UTF8
Codec ID/Info : UTF-8 Plain Text
Language : French
Default : No
Forced : No
Text #3
ID : 6
Format : UTF-8
Codec ID : S_TEXT/UTF8
Codec ID/Info : UTF-8 Plain Text
Language : Spanish
Default : No
Forced : No
Menu
00:00:00.000 : en:00:00:00.000
00:08:24.500 : en:00:08:24.500
00:16:40.167 : en:00:16:40.167
00:23:08.083 : en:00:23:08.083
00:35:43.208 : en:00:35:43.208
00:50:59.875 : en:00:50:59.875
01:00:51.542 : en:01:00:51.542
01:11:55.167 : en:01:11:55.167
01:21:45.208 : en:01:21:45.208
01:31:40.875 : en:01:31:40.875
01:44:06.500 : en:01:44:06.500
01:55:06.875 : en:01:55:06.875
02:05:50.500 : en:02:05:50.500

Скриншоты

Other forum [Profile] [PM]
Display posts from previous:    
Reply to topic

The time now is: Today 13:50

All times are GMT + 3 Hours



You cannot post new topics in this forum
You cannot reply to topics in this forum
You cannot edit your posts in this forum
You cannot delete your posts in this forum
You cannot vote in polls in this forum
You cannot attach files in this forum
You cannot download files in this forum