Today is a free download without charge Download

Сетевая угроза / Серии: 1-4 из 4 (Игорь Четвериков) [2011, детектив, SATRip]

Reply to topic
 
Author
Message

Hancock ®

Gender:

Longevity: 9 years 8 months

Posts: 73

Торрент-статистика

Post 01-May-2012 11:56

[Quote]

Сетевая угроза
Год выпуска: 2011
Производство: "Беларусьфильм"
Жанр: детектив
Продолжительность: 00:48:08
Режиссёр: Игорь Четвериков
В ролях: Павел Южаков-Харланчук, Александр Кашперов (II), Мария Возба, Вадим Утенков
Описание: Продолжение телевизионного фильма "Иллюзия охоты".
Истории фильмов объединяет общий герой - сельский участковый лейтенант Андрей Качура. В силу своего характера, доброжелательного отношения к людям и природной смекалки Качура всякий раз оказывается вовлеченным в расследование уголовного преступления и становится одной из ключевых фигур при его раскрытии.

Качество: SATRip
Формат: AVI
Видео кодек: XviD
Аудио кодек: MP3
Видео: 704x400 (1.76:1), 25 fps, XviD build 50 ~1498 kbps avg, 0.21 bit/pixe
Аудио: 48 kHz, MPEG Layer 3, 2 ch, ~128.00 kbps avg
Реклама не обнаружена!

MI

Общее
Полное имя : D:\сериал Сетевая угроза\01 серия.avi
Формат : AVI
Формат/Информация : Audio Video Interleave
Размер файла : 563 Мбайт
Продолжительность : 48 м.
Общий поток : 1636 Кбит/сек
Программа кодирования : MEncoder UNKNOWN-4.2.4
Библиотека кодирования : Boilsoft AVI tool build 1/release
Видео
Идентификатор : 0
Формат : MPEG-4 Visual
Профиль формата : [email protected]
Параметр BVOP формата : Нет
Параметр QPel формата : Нет
Параметр GMC формата : Без точки перехода
Параметр матрицы формата : Default (H.263)
Идентификатор кодека : XVID
Идентификатор кодека/Подсказка : XviD
Продолжительность : 48 м.
Битрейт : 1498 Кбит/сек
Ширина : 704 пикселя
Высота : 400 пикселей
Соотношение сторон : 16:9
Частота кадров : 25,000 кадров/сек
Цветовое пространство : YUV
Субдискретизация насыщенности : 4:2:0
Битовая глубина : 8 бит
Тип развёртки : Прогрессивная
Метод сжатия : С потерями
Бит/(Пиксели*Кадры) : 0.213
Размер потока : 516 Мбайт (92%)
Библиотека кодирования : XviD 1.2.1 (UTC 2008-12-04)
Аудио
Идентификатор : 1
Формат : MPEG Audio
Версия формата : Version 1
Профиль формата : Layer 3
Режим : Joint stereo
Расширение режима : MS Stereo
Идентификатор кодека : 55
Идентификатор кодека/Подсказка : MP3
Продолжительность : 48 м.
Вид битрейта : Постоянный
Битрейт : 128 Кбит/сек
Каналы : 2 канала
Частота : 48,0 КГц
Метод сжатия : С потерями
Размер потока : 44,1 Мбайт (8%)
Выравнивание : Разделение по промежуткам
Продолжительность промежутка : 40 мс. (1,00 видеокадр)
Время предзагрузки промежутка : 500 мс.

Скриншоты

 
 
 

_________________


Last edited by Hancock on 2012-05-01 17:23; edited 2 times in total
Other forum [Profile] [PM]
Display posts from previous:    
Reply to topic

The time now is: Today 06:10

All times are GMT + 3 Hours



You cannot post new topics in this forum
You cannot reply to topics in this forum
You cannot edit your posts in this forum
You cannot delete your posts in this forum
You cannot vote in polls in this forum
You cannot attach files in this forum
You cannot download files in this forum