Today is a free download without charge Download

Снежная королева (Владлен Барбэ, Максим Свешников) [2012, Мультфильм, WEB-DLRip]

Reply to topic
 
Author
Message

Omen ®

Longevity: 7 years 11 months

Posts: 181087

Торрент-статистика

Post 08-Jun-2015 15:00

[Quote]

Снежная королева
Страна: Россия
Жанр: Мультфильм
Продолжительность: 01:17:21
Год выпуска: 2012
Перевод: Не требуется
Русские субтитры: нет
Режиссёр: Владлен Барбэ, Максим Свешников
Роли озвучивали: Иван Охлобыстин, Нюша Шурочкина, Анна Ардова, Рамиля Искандер, Дмитрий Нагиев, Лиза Арзамасова, Галина Тюнина, Юрий Стоянов, Людмила Артемьева, Михаил Тихонов
Описание: В стремлении сотворить Новый мир — холодный и практичный, где четкость линий призвана заменить эмоции, а северный ветер должен остудить людские души, Снежная Королева избавляется от всех представителей творческих профессий. Маленькой и смелой Герде, отправившейся в опасное путешествие, чтобы спасти своего брата Кая, предстоит столкнуться с этим холодным миром Снежной Королевы. Преодолевая все сложности и преграды на пути к своей цели, Герда не только обретает семью, но и веру в себя, находит поддержку новых друзей.
Семпл: https://www.sendspace.com/file/s8vyfe
Качество: WEB-DLRip
Формат: AVI
Видео: XVID; 1593 Кбит/сек; 720х400 (16:9); 24,000 кадра/сек
Аудио: AC-3; 448 Кбит/сек; 6 каналов; 48,0 КГц
Субтитры: Отсутствуют

Подробные технические данные

ОбщееПолное имя : E:\закачки\Снежная королева (2012) [/*spam*/].aviФормат : AVIФормат/Информация : Audio Video InterleaveРазмер файла : 1,09 ГбайтПродолжительность : 1 ч. 16 м.Общий поток : 2050 Кбит/секПрограмма кодирования : VirtualDubMod 1.5.10.2 (build 2540/release)Библиотека кодирования : VirtualDubMod build 2540/release
ВидеоИдентификатор : 0Формат : MPEG-4 VisualПрофиль формата : Advanced [email protected]Параметр BVOP формата : 2Параметр QPel формата : НетПараметр GMC формата : Без точки переходаПараметр матрицы формата : Default (H.263)Идентификатор кодека : XVIDИдентификатор кодека/Подсказка : XviDПродолжительность : 1 ч. 16 м.Битрейт : 1593 Кбит/секШирина : 720 пикселейВысота : 400 пикселейСоотношение сторон : 16:9Частота кадров : 24,000 кадра/секЦветовое пространство : YUVСубдискретизация насыщенности : 4:2:0Битовая глубина : 8 битТип развёртки : ПрогрессивнаяМетод сжатия : С потерямиБит/(Пиксели*Кадры) : 0.230Размер потока : 866 Мбайт (78%)Библиотека кодирования : XviD 1.2.1 (UTC 2008-12-04)
АудиоИдентификатор : 1Формат : AC-3Формат/Информация : Audio Coding 3Расширение режима : CM (complete main)Параметр Endianness формата : BigИдентификатор кодека : 2000Продолжительность : 1 ч. 16 м.Вид битрейта : ПостоянныйБитрейт : 448 Кбит/секКаналы : 6 каналовРасположение каналов : Front: L C R, Side: L R, LFEЧастота : 48,0 КГцБитовая глубина : 16 битМетод сжатия : С потерямиРазмер потока : 244 Мбайт (22%)Выравнивание : Разделение по промежуткамПродолжительность промежутка : 42 мс. (1,00 видеокадр)Время предзагрузки промежутка : 500 мс.

Скриншоты

Other forum [Profile] [PM]
Display posts from previous:    
Reply to topic

The time now is: Today 20:30

All times are GMT + 3 Hours



You cannot post new topics in this forum
You cannot reply to topics in this forum
You cannot edit your posts in this forum
You cannot delete your posts in this forum
You cannot vote in polls in this forum
You cannot attach files in this forum
You cannot download files in this forum