Today is a free download without charge Download

Про Фому и про Ерёму (Юрий Прытков) [1984 г., мультфильм, DVB]

Reply to topic
 
Author
Message

Omen ®

Longevity: 7 years 11 months

Posts: 181087

Торрент-статистика

Post 06-Jun-2015 00:06

[Quote]

Про Фому и про Ерёму
Страна: СССР, Союзмультфильм
Жанр: мультфильм
Год выпуска: 1984
Продолжительность: 00:08:56
Режиссёр: Юрий Прытков
Описание: мультфильм о том как жили-были Фома и Ерема и надоело им сидеть дома, решили они на работу пойти, но не клеится у них ничего, как вспахали, так посеяли и так же ничего и не взошло. Опять сидят братья дома и снова им скучно стало, пошли они на охоту, но охотились не они, а на них. Потом на рыбалку, где, Фома поймал сапог, а Ерема неведома что. А потом на рынок, где пока они ворон ловили, им мешочки подменили. И подумали Фома и Емеля, лучше дома сидеть и людей не смешить!
Доп. информация: мультфильм по народным шуткам-прибауткам

Трансляция спутникового канала:

Качество видео: DVB
Формат видео: MPEG-PS
Видео: MPEG2 Video, 720x576 (4:3), 25 fps, 3700 kbps
Аудио: MPEG Audiо, 2 сh, 48 kHz, 192 kbps

MediaInfo

General
Complete name : D:\Про Фому и про Ерёму. (1984)_DVB by SLuMeP.mpg
Format : MPEG-PS
File size : 252 MiB
Duration : 8mn 56s
Overall bit rate mode : Variable
Overall bit rate : 3 939 Kbps
Video
ID : 224 (0xE0)
Format : MPEG Video
Format version : Version 2
Format profile : [email protected]
Format settings, BVOP : Yes
Format settings, Matrix : Custom
Format settings, GOP : M=3, N=12
Format settings, picture st : Frame
Duration : 8mn 56s
Bit rate mode : Variable
Bit rate : 3 668 Kbps
Maximum bit rate : 5 000 Kbps
Width : 720 pixels
Height : 576 pixels
Display aspect ratio : 4:3
Frame rate : 25.000 fps
Standard : PAL
Color space : YUV
Chroma subsampling : 4:2:0
Bit depth : 8 bits
Scan type : Interlaced
Scan order : Top Field First
Compression mode : Lossy
Bits/(Pixel*Frame) : 0.354
Time code of first frame : 00:00:00:00
Time code source : Group of pictures header
GOP, Open/Closed : Open
Stream size : 235 MiB (93%)
GOP, Open/Closed of first f : Closed
Audio
ID : 192 (0xC0)
Format : MPEG Audio
Format version : Version 1
Format profile : Layer 2
Duration : 8mn 56s
Bit rate mode : Constant
Bit rate : 192 Kbps
Channel(s) : 2 channels
Sampling rate : 48.0 KHz
Compression mode : Lossy
Stream size : 12.3 MiB (5%)

Скриншоты


Other forum [Profile] [PM]
Display posts from previous:    
Reply to topic

The time now is: Today 21:47

All times are GMT + 3 Hours



You cannot post new topics in this forum
You cannot reply to topics in this forum
You cannot edit your posts in this forum
You cannot delete your posts in this forum
You cannot vote in polls in this forum
You cannot attach files in this forum
You cannot download files in this forum