Today is a free download without charge Download

Мозаика (Инструкция к игре) (Валерий Врублевский) [1989, комбинированный мультфильм, DVDRip]

Reply to topic
 
Author
Message

Omen ®

Longevity: 7 years 11 months

Posts: 181087

Торрент-статистика

Post 06-Jun-2015 00:06

[Quote]

Мозаика (Инструкция к игре)
Страна: CCCР
Жанр: комбинированный мультфильм
Продолжительность: 00:07:34
Год выпуска: 1989
Русские субтитры: нет
Режиссёр: Валерий Врублевский
Описание: На сетчатую основу высыпаются детали мозаики. Из деталей составляются различные фигуры. Фигуры начинают двигаться, окружать друг друга и менять форму и цвет. В конце концов детальки образуют разноцветный шар, который начинает вращаться. И вдруг оказывается, что это планета, улетающая вглубь космоса. А на чистое поле вновь высыпаются детальки: что сможешь собрать из них ты — зритель?
Доп. информация: «Киевнаучфильм»
сценарист В. Врублевский
художник-постановщик Л. Балаклав
аниматоры Н. Котюжан, В. Врублевский
оператор Александр Мухин
директор Иван Мазепа
композитор А. Спаринский
звукорежиссер И. Мойжес
редактор Евгений Назаренко
монтажер Ю. Сребницкая
Качество: DVDRip
Формат: AVI
Видео: 704x528 (1.33:1), 25 fps, XviD MPEG-4 ~1655 kbps avg, 0.18 bit/pixel
Аудио: 48 kHz, AC3 Dolby Digital, 2/0 (L,R) ch, ~192.00 kbps avg
Субтитры: нет

Подробные технические данные

Format : AVIFormat/Info : Audio Video InterleaveFile size : 100 MiBDuration : 7mn 34sOverall bit rate : 1 853 Kbps
VideoID : 0Format : MPEG-4 VisualFormat profile : Advanced [email protected] settings, BVOP : 2Format settings, QPel : NoFormat settings, GMC : No warppointsFormat settings, Matrix : Default (H.263)Muxing mode : Packed bitstreamCodec ID : XVIDCodec ID/Hint : XviDDuration : 7mn 34sBit rate : 1 655 KbpsWidth : 704 pixelsHeight : 528 pixelsDisplay aspect ratio : 4:3Frame rate : 25.000 fpsColor space : YUVChroma subsampling : 4:2:0Bit depth : 8 bitsScan type : ProgressiveCompression mode : LossyBits/(Pixel*Frame) : 0.178Stream size : 89.6 MiB (89%)Writing library : XviD 1.2.1 (UTC 2008-12-04)
AudioID : 1Format : AC-3Format/Info : Audio Coding 3Mode extension : CM (complete main)Format settings, Endianness : BigCodec ID : 2000Duration : 7mn 34sBit rate mode : ConstantBit rate : 192 KbpsChannel(s) : 2 channelsChannel positions : Front: L RSampling rate : 48.0 KHzBit depth : 16 bitsCompression mode : LossyStream size : 10.4 MiB (10%)Alignment : Aligned on interleavesInterleave, duration : 200 ms (5.00 video frames)

интересные факты

• Сцена с планетой пародирует сцену со «Всем белым светом» из мультфильма «Кошка, которая гуляла сама по себе».
• Сцена с черно-желтым шариком пародирует логотип «Adidas»
• В мультфильме не произносится ни одного слова, звучит лишь музыка.

Скриншоты

Other forum [Profile] [PM]
Display posts from previous:    
Reply to topic

The time now is: Today 18:37

All times are GMT + 3 Hours



You cannot post new topics in this forum
You cannot reply to topics in this forum
You cannot edit your posts in this forum
You cannot delete your posts in this forum
You cannot vote in polls in this forum
You cannot attach files in this forum
You cannot download files in this forum