Today is a free download without charge Download

Нико и Никора (Григорий Чмутов, Аркадий Хинтибидзе) [1954, рисованный мультфильм, TVRip]

Reply to topic
 
Author
Message

Omen ®

Longevity: 7 years 11 months

Posts: 181087

Торрент-статистика

Post 28-May-2015 00:00

[Quote]

Нико и Никора
Страна: СССР
Производство: Грузия-фильм
Жанр: рисованный мультфильм
Продолжительность: 00:17:41
Год выпуска: 1954
Русские субтитры: нет
Режиссёр: Григорий Чмутов, Аркадий Хинтибидзе
Описание: На поле мирно трудятся мальчик Нико и бык Никора. После тяжёлой работы они располагаются на отдых. Неожиданно на них нападает злой и прожорливый великан Дэв. Он хватает Нико и уносит к себе. Никора отправляется на поиски Нико.
Кинопоиск
Качество: TVRip
Формат: AVI
Видео: 640x480 (1.33:1), 25 fps, XviD MPEG-4 ~1603 kbps avg, 0.209 bit/pixel
Аудио: 44.1 kHz, MPEG Layer 3, 1 ch, ~96.00 kbps avg
Субтитры: Отсутствуют

Подробные технические данные

GeneralComplete name : E:\1\мультики\Нико и Никора 1954.aviFormat : AVIFormat/Info : Audio Video InterleaveFile size : 216 MiBDuration : 17mn 41sOverall bit rate : 1 709 KbpsWriting library : VirtualDub build 35512/release
VideoID : 0Format : MPEG-4 VisualFormat profile : Advanced [email protected] settings, BVOP : 2Format settings, QPel : NoFormat settings, GMC : No warppointsFormat settings, Matrix : Default (H.263)Codec ID : XVIDCodec ID/Hint : XviDDuration : 17mn 41sBit rate : 1 603 KbpsWidth : 640 pixelsHeight : 480 pixelsDisplay aspect ratio : 4:3Frame rate : 25.000 fpsColor space : YUVChroma subsampling : 4:2:0Bit depth : 8 bitsScan type : ProgressiveCompression mode : LossyBits/(Pixel*Frame) : 0.209Stream size : 203 MiB (94%)Writing library : XviD 73
AudioID : 1Format : MPEG AudioFormat version : Version 1Format profile : Layer 3Codec ID : 55Codec ID/Hint : MP3Duration : 17mn 41sBit rate mode : ConstantBit rate : 96.0 KbpsChannel count : 1 channelSampling rate : 44.1 KHzCompression mode : LossyStream size : 12.1 MiB (6%)Alignment : Split accross interleavesInterleave, duration : 40 ms (1.00 video frame)Interleave, preload duration : 500 ms

Скриншоты

Other forum [Profile] [PM]
Display posts from previous:    
Reply to topic

The time now is: Today 11:23

All times are GMT + 3 Hours



You cannot post new topics in this forum
You cannot reply to topics in this forum
You cannot edit your posts in this forum
You cannot delete your posts in this forum
You cannot vote in polls in this forum
You cannot attach files in this forum
You cannot download files in this forum