Today is a free download without charge Download

Воробей Клюев (Наталья Фатих) [2013, мультфильм, DVDScreener]

Reply to topic
 
Author
Message

Omen ®

Longevity: 7 years 11 months

Posts: 181087

Торрент-статистика

Post 26-May-2015 15:55

[Quote]

Воробей Клюев
Страна: РФ
Жанр: мультфильм
Продолжительность: 00:04:36
Год выпуска: 2013
Русские субтитры: нет
Режиссёр: Наталья Фатих
Описание: Редкая удача - воробью Клюеву досталось целых полбатона!
Доп. информация: Фильм - участник конкурсной программы фестиваля Суздаль-2014
Качество: DVDScreener
Формат: AVI
Видео: XVID, 720x416, 25fps, 1316kbps
Аудио: MPEG Layer 3, 48kHz, 2ch, 192kbps
Субтитры: отсутствуют

Подробные технические данные

Полное имя : Воробей Клюев.aviФормат : AVIФормат/Информация : Audio Video InterleaveРазмер файла : 50,1 МбайтПродолжительность : 4 м. 36 с.Общий поток : 1520 Кбит/секПрограмма кодирования : VirtualDubMod 1.5.10.3 | www.virtualdub-fr.org || (build 2550/release)Библиотека кодирования : VirtualDubMod build 2550/release
ВидеоИдентификатор : 0Формат : MPEG-4 VisualПрофиль формата : Advanced [email protected]Параметр BVOP формата : 1Параметр QPel формата : НетПараметр GMC формата : Без точки переходаПараметр матрицы формата : Default (H.263)Идентификатор кодека : DIVXИдентификатор кодека/Информация : Project MayoИдентификатор кодека/Подсказка : DivX 4Продолжительность : 4 м. 36 с.Битрейт : 1316 Кбит/секШирина : 720 пикселейВысота : 416 пикселейСоотношение сторон : 1,731Частота кадров : 29,970 кадров/секЦветовое пространство : YUVСубдискретизация насыщенности : 4:2:0Битовая глубина : 8 битТип развёртки : ПрогрессивнаяМетод сжатия : С потерямиБит/(Пиксели*Кадры) : 0.147Размер потока : 43,4 Мбайт (87%)Библиотека кодирования : XviD 1.2.1 (UTC 2008-12-04)
АудиоИдентификатор : 1Формат : MPEG AudioВерсия формата : Version 1Профиль формата : Layer 3Идентификатор кодека : 55Идентификатор кодека/Подсказка : MP3Продолжительность : 4 м. 36 с.Вид битрейта : ПостоянныйБитрейт : 192 Кбит/секКаналы : 2 каналаЧастота : 48,0 КГцМетод сжатия : С потерямиРазмер потока : 6,33 Мбайт (13%)Выравнивание : Соединение по промежуткамПродолжительность промежутка : 33 мс. (1,00 видеокадр)Время предзагрузки промежутка : 504 мс.Библиотека кодирования : LAME3.99rНастройки программы : -m s -V 4 -q 0 -lowpass 18.6 -b 192

Скриншоты



Other forum [Profile] [PM]
Display posts from previous:    
Reply to topic

The time now is: Today 12:48

All times are GMT + 3 Hours



You cannot post new topics in this forum
You cannot reply to topics in this forum
You cannot edit your posts in this forum
You cannot delete your posts in this forum
You cannot vote in polls in this forum
You cannot attach files in this forum
You cannot download files in this forum