Today is a free download without charge Download

Мотоциклистка / The Girl on a Motorcycle (Джек Кардифф / Jack Cardiff) [1968, Франция, Великобритания, мелодрама, BDRip 720p] MVO Original Eng

Reply to topic
 
Author
Message

Delia ®

Gender:

Longevity: 11 years

Posts: 1821

Торрент-статистика

Post 25-Apr-2012 08:06

[Quote]

Девушка на мотоцикле / The Girl on a Motorcycle«The film sensation of the year!»--
Год выпуска: 1968
Страна: Франция , Великобритания
Жанр: мелодрама, ...
Продолжительность: 01:27:48
Перевод:Профессиональный (многоголосый, закадровый)
Режиссер: Джек Кардифф
Сценарий: Рональд Дункан, Джиллиан Фриман, Андре Пьейр Де Мандиарг, ...
Продюсер: Уильям Сэссун, Саша Каменка, Ronan O'Rahilly
Оператор: Джек Кардифф, Rene Guissart Jr.
Композитор: Лес Рид
Художник: Жан Д’Обонн, Расселл Хэгг
Монтаж: Питер Мусгрейв- В ролях: Ален Делон (Alain Delon), Марианна Фэйтфулл (Marianne Faithfull), Roger Mutton, Мариус Горинг (Marius Goring), Катрин Журдан (Catherine Jourdan), Жан Ледюк (Jean Leduc), Жак Марен (Jacques Marin), Андре Маранн (Andre Maranne), Бари Йонсон (Bari Jonson), Арнольд Даймонд (Arnold Diamond), Джон Дж. Хеллер (John G. Heller), Марика Ривера (Marika Rivera), Ричард Блейк (Richard Blake), Крис Уильямс (Chris Williams), Колин Уэст (Colin West), Кит Уильямс (Kit Williams), Stephanie Muldenhall
Описание: Очаровательная девушка по имени Ребекка одна едет через всю Европу на своем мотоцикле. Проезжая разные города и встречая новых людей, она вспоминает свою прошлую любовь и мечтает о будущей, т. к. едет к своему новому возлюбленному. Но не так все просто у нее на душе, да и длинная дорога полна неожиданностей.-Премьера (мир): 18 ноября 1968, ...
Рейтинг MPAA: -- --Качество: BDRip
Формат: MKV
Видео кодек: H.264 (AVC)
Аудио кодеk: AC3
Видео: 1140x720 (1.583:1), 29.970 fps, AVC, 6 553 Kbps
Аудио: AC3, 192 Kbps, 48.0 KHz, 2 ch RUS
Аудио #2: AC3, 384 Kbps, 48.0 KHz, 2 ch ENG

МедиаИнфо

Код:
General
Complete name                    : The Girl on a Motorcycle(1968)-F.HD.mkv
Format                           : Matroska
File size                        : 4.37 GiB
Duration                         : 1h 27mn
Overall bit rate                 : 7 130 Kbps
Encoded date                     : UTC 2012-04-25 03:27:54
Writing application              : mkvmerge v5.5.0 ('Healer') built on Apr  6 2012 21:43:24
Writing library                  : libebml v1.2.3 + libmatroska v1.3.0
Video
ID                               : 1
Format                           : AVC
Format/Info                      : Advanced Video Codec
Format profile                   : [email protected]
Format settings, CABAC           : Yes
Format settings, ReFrames        : 10 frames
Muxing mode                      : Container [email protected]
Codec ID                         : V_MPEG4/ISO/AVC
Duration                         : 1h 27mn
Bit rate                         : 6 553 Kbps
Width                            : 1 140 pixels
Height                           : 720 pixels
Display aspect ratio             : 1.583
Frame rate                       : 29.970 fps
Color space                      : YUV
Chroma subsampling               : 4:2:0
Bit depth                        : 8 bits
Scan type                        : Progressive
Bits/(Pixel*Frame)               : 0.266
Stream size                      : 3.93 GiB (90%)
Writing library                  : x264 core 122 r2184 5c85e0a
Encoding settings                : cabac=1 / ref=10 / deblock=1:-3:-3 / analyse=0x3:0x133 / me=umh / subme=10 / psy=1 / psy_rd=1.00:0.15 / mixed_ref=1 / me_range=48 / chroma_me=1 / trellis=2 / 8x8dct=1 / cqm=0 / deadzone=21,11 / fast_pskip=0 / chroma_qp_offset=-3 / threads=6 / sliced_threads=0 / nr=0 / decimate=1 / interlaced=0 / bluray_compat=0 / constrained_intra=0 / bframes=8 / b_pyramid=2 / b_adapt=2 / b_bias=0 / direct=3 / weightb=1 / open_gop=0 / weightp=2 / keyint=300 / keyint_min=29 / scenecut=40 / intra_refresh=0 / rc=2pass / mbtree=0 / bitrate=6553 / ratetol=1.0 / qcomp=0.70 / qpmin=0 / qpmax=69 / qpstep=4 / cplxblur=20.0 / qblur=0.5 / ip_ratio=1.40 / pb_ratio=1.20 / aq=2:0.90
Color primaries                  : BT.709-5, BT.1361, IEC 61966-2-4, SMPTE RP177
Transfer characteristics         : BT.709-5, BT.1361
Matrix coefficients              : BT.709-5, BT.1361, IEC 61966-2-4 709, SMPTE RP177
Audio #1
ID                               : 2
Format                           : AC-3
Format/Info                      : Audio Coding 3
Mode extension                   : CM (complete main)
Codec ID                         : A_AC3
Duration                         : 1h 27mn
Bit rate mode                    : Constant
Bit rate                         : 192 Kbps
Channel(s)                       : 2 channels
Channel positions                : Front: L R
Sampling rate                    : 48.0 KHz
Bit depth                        : 16 bits
Stream size                      : 121 MiB (3%)
Language                         : Russian
Audio #2
ID                               : 3
Format                           : AC-3
Format/Info                      : Audio Coding 3
Mode extension                   : CM (complete main)
Codec ID                         : A_AC3
Duration                         : 1h 27mn
Bit rate mode                    : Constant
Bit rate                         : 384 Kbps
Channel(s)                       : 2 channels
Channel positions                : Front: L R
Sampling rate                    : 48.0 KHz
Bit depth                        : 16 bits
Stream size                      : 241 MiB (5%)
Menu
00:00:00.000                     : en:Chapter 01
00:06:32.792                     : en:Chapter 02
00:14:31.036                     : en:Chapter 03
00:21:00.826                     : en:Chapter 04
00:29:20.959                     : en:Chapter 05
00:37:51.835                     : en:Chapter 06
00:44:16.053                     : en:Chapter 07
00:52:18.568                     : en:Chapter 08
00:59:46.849                     : en:Chapter 09
01:08:26.535                     : en:Chapter 10
01:13:46.354                     : en:Chapter 11
01:23:13.621                     : en:Chapter 12
01:27:46.661                     : en:Chapter 13


Скриншоты

     
     

_________________
Человек – это канат, натянутый между животным и сверхчеловеком, – канат над пропастью.
В человеке ценно то, что он мост, а не цель. Фридрих Ницше
Other forum [Profile] [PM]
Display posts from previous:    
Reply to topic

The time now is: Today 11:33

All times are GMT + 3 Hours



You cannot post new topics in this forum
You cannot reply to topics in this forum
You cannot edit your posts in this forum
You cannot delete your posts in this forum
You cannot vote in polls in this forum
You cannot attach files in this forum
You cannot download files in this forum