Today is a free download without charge Download

Звезда (Николай Лебедев) [2002, Россия, боевик, драма, приключения, военный, история, HDTV 1080i] + Original Rus

Reply to topic
 
Author
Message

Omen ®

Longevity: 8 years 10 months

Posts: 181086

Торрент-статистика

Post 24-May-2015 15:03

[Quote]

Звезда
Страна: Россия
Жанр: боевик, драма, приключения, военный, история
Год выпуска: 2002
Продолжительность: 01:32:16
Перевод: Не требуется
Cубтитры: нет
Оригинальная аудиодорожка: русский
Режиссер: Николай Лебедев
В ролях: Игорь Петренко, Алексей Панин, Артем Семакин, Алексей Кравченко, Анатолий Гущин, Амаду Мамадаков, Юрий Лагута, Екатерина Вуличенко, Андрей Егоров, Сергей Миллер
Описание: Лето 1944 года, Красная Армия ведет бои на подступах к западной границе СССР. В тыл врага отправляется группа разведчиков, молодых ребят. Их позывные — «Звезда». Они должны выполнить задание, от которого зависит судьба фронта.
И они выполняют его, но цена этого задания оказывается слишком дорогой. Полный напряжения и драматизма, фильм заставляет вспомнить, кто победил в этой войне.

Сэмпл: http://rusfolder.com/43711837
Тип релиза: HDTV 1080i
Контейнер: TS
Видео: AVC/H.264, 1920x1080 (16:9), 10,5 Мбит/сек, 25.000 fps
Аудио: русский, MP2, 2ch, 48,0 КГц, 192 Кбит/сек

MediaInfo

Общее
Идентификатор : 1 (0x1)
Полное имя : D:\Звезда.ts
Формат : MPEG-TS
Размер файла : 7,25 Гбайт
Продолжительность : 1 ч. 32 м.
Режим общего битрейта : Переменный
Общий поток : 11,3 Мбит/сек
Видео
Идентификатор : 1311 (0x51F)
Идентификатор меню : 1 (0x1)
Формат : AVC
Формат/Информация : Advanced Video Codec
Профиль формата : [email protected]
Параметр CABAC формата : Да
Параметр ReFrames формата : 3 кадра
Параметр GOP формата : M=4, N=32
Идентификатор кодека : 27
Продолжительность : 1 ч. 32 м.
Битрейт : 10,5 Мбит/сек
Ширина : 1920 пикселей
Высота : 1080 пикселей
Соотношение сторон : 16:9
Частота кадров : 25,000 кадров/сек
Стандарт вещания : Component
Цветовое пространство : YUV
Субдискретизация насыщенности : 4:2:0
Битовая глубина : 8 бит
Тип развёртки : Чересстрочная
Порядок развёртки : Верхнее поле первое
Бит/(Пиксели*Кадры) : 0.203
Размер потока : 6,77 Гбайт (93%)
Основные цвета : BT.709
Характеристики трансфера : BT.709
Коэффициенты матрицы : BT.709
colour_range : Limited
Аудио
Идентификатор : 1312 (0x520)
Идентификатор меню : 1 (0x1)
Формат : MPEG Audio
Версия формата : Version 1
Профиль формата : Layer 2
Идентификатор кодека : 3
Продолжительность : 1 ч. 32 м.
Вид битрейта : Постоянный
Битрейт : 192 Кбит/сек
Каналы : 2 канала
Частота : 48,0 КГц
Метод сжатия : С потерями
Размер потока : 127 Мбайт (2%)
Язык : Russian

Скриншот c названием фильма

Скриншоты

Other forum [Profile] [PM]
Similar theme
Forum Topic Author Torrent Replies Last Post
./templates/default/images/folder_dl.gif Зарубежное кино Изгой-один: Звёздные войны. Истории / Rogue One: A Star Wars Story (Гарет Эдвардс) [2016 г., фантастика, боевик, приключения, BDRip 1080p] DUB | Чистый звук Theseus
1 | 0

0 | 7693

7

2017-03-22 11:05
Theseus Latest
./templates/default/images/folder_dl.gif Фантастика, фэнтези, ужасы, мистика Гарднер Дозуа (сост.) | Лучшая зарубежная научная фантастика: Звёзды не лгут [Антология] (2018) [FB2] }{@R0N
1 | 0

0 | 674

0

2019-06-23 14:48
}{@R0N Latest
Display posts from previous:    
Reply to topic

The time now is: Today 20:59

All times are GMT + 3 Hours



You cannot post new topics in this forum
You cannot reply to topics in this forum
You cannot edit your posts in this forum
You cannot delete your posts in this forum
You cannot vote in polls in this forum
You cannot attach files in this forum
You cannot download files in this forum