Today is a free download without charge Download

Клятва / The Vow [ Майкл Сакси (2012) драма, мелодрама , BDRip 1080p ]

Reply to topic
 
Author
Message

Delia ®

Gender:

Longevity: 10 years

Posts: 1821

Торрент-статистика

Post 24-Apr-2012 11:54

[Quote]

Клятва / The Vow--
Год выпуска: 2012
Страна: США , Германия , Франция , Бразилия , Великобритания , Австралия
Жанр: драма, мелодрама, ...
Продолжительность: 01:43:54
Перевод: Профессиональный (дублированный)
Субтитры: Russian , English (srt)
Режиссер: Майкл Сакси
Сценарий: Джейсон Катимс, Эбби Кон, Марк Силверштейн, ...
Продюсер: Гари Барбер, Роджер Бернбаум, Джонатан Гликман, ...
Оператор: Рохир Стофферс
Композитор: Майкл Брук, Рэйчел Портман
Художник: Калина Иванов, Брандт Гордон, Алекс Кэвэна, ...
Монтаж: Мелисса Кент, Нэнси Ричардсон- В ролях: Рэйчел МакАдамс (Rachel McAdams), Ченнинг Татум (Channing Tatum), Сэм Нил (Sam Neill), Скотт Спидман (Scott Speedman), Джессика Лэнг (Jessica Lange), Джессика МакНэми (Jessica McNamee), Венди Крюсон (Wendy Crewson), Татьяна Маслани (Tatiana Maslany), Лукас Брайант (Lucas Bryant), Джои Клейн (Joey Klein), Джо Кобден (Joe Cobden), Джинэнн Гуссен (Jeananne Goossen), Диллон Кэйси (Dillon Casey), Шеннон Барнетт (Shannon Barnett), Линдсэй Амес (Lindsay Ames), Кристина Пешич (Kristina Pesic), Бриттни Ирвин (Brittney Irvin), Сара Картер (Sarah Carter), Анджела Винт (Angela Vint), Рэйчел Скарстен (Rachel Skarsten)
Описание: Во время медового месяца Пейдж и Лео попадают в автокатастрофу. Пока жена находится в коме, Лео не отходит от ее кровати ни на час, но возвращение девушки к жизни омрачено потерей памяти — она не узнает любимого и не помнит об их романе. И тогда Лео решает заново завоевать сердце Пейдж.-Рейтинг MPAA: -- --Качество: BDRip
Формат: MKV
Видео кодек: H.264 (AVC)
Аудио кодеk: AC3
Видео: 1920x800 (2.40:1), 23.976 fps, AVC, 5 640 Kbps
Аудио: AC3, 384 Kbps, 48.0 KHz, 6 ch RUS Duв

Отдельно на народ.ру:
Украинский:384 Кбит/сек, 48,0 КГц, 16 бит, 6 каналов, AC-3
Английский:384 Кбит/сек, 48,0 КГц, 16 бит, 6 каналов, AC-3

МедиаИнфо

Код:
General
Complete name                    : The Vow (2012) BDRip 1080p-F.HD.mkv
Format                           : Matroska
File size                        : 4.37 GiB
Duration                         : 1h 43mn
Overall bit rate                 : 6 026 Kbps
Encoded date                     : UTC 2012-04-24 07:22:41
Writing application              : mkvmerge v5.5.0 ('Healer') built on Apr  6 2012 21:43:24
Writing library                  : libebml v1.2.3 + libmatroska v1.3.0
Video
ID                               : 1
Format                           : AVC
Format/Info                      : Advanced Video Codec
Format profile                   : [email protected]
Format settings, CABAC           : Yes
Format settings, ReFrames        : 5 frames
Muxing mode                      : Container [email protected]
Codec ID                         : V_MPEG4/ISO/AVC
Duration                         : 1h 43mn
Bit rate                         : 5 640 Kbps
Width                            : 1 920 pixels
Height                           : 800 pixels
Display aspect ratio             : 2.40:1
Frame rate                       : 23.976 fps
Color space                      : YUV
Chroma subsampling               : 4:2:0
Bit depth                        : 8 bits
Scan type                        : Progressive
Bits/(Pixel*Frame)               : 0.153
Stream size                      : 4.01 GiB (92%)
Writing library                  : x264 core 122 r2184 5c85e0a
Encoding settings                : cabac=1 / ref=5 / deblock=1:-3:-2 / analyse=0x3:0x113 / me=umh / subme=10 / psy=1 / psy_rd=1.00:0.15 / mixed_ref=1 / me_range=48 / chroma_me=1 / trellis=2 / 8x8dct=1 / cqm=0 / deadzone=21,11 / fast_pskip=0 / chroma_qp_offset=-3 / threads=6 / sliced_threads=0 / nr=0 / decimate=1 / interlaced=0 / bluray_compat=0 / constrained_intra=0 / bframes=8 / b_pyramid=2 / b_adapt=2 / b_bias=0 / direct=3 / weightb=1 / open_gop=0 / weightp=2 / keyint=240 / keyint_min=23 / scenecut=40 / intra_refresh=0 / rc=2pass / mbtree=0 / bitrate=5640 / ratetol=1.0 / qcomp=0.70 / qpmin=0 / qpmax=69 / qpstep=4 / cplxblur=20.0 / qblur=0.5 / ip_ratio=1.40 / pb_ratio=1.20 / aq=2:0.90
Color primaries                  : BT.709-5, BT.1361, IEC 61966-2-4, SMPTE RP177
Transfer characteristics         : BT.709-5, BT.1361
Matrix coefficients              : BT.709-5, BT.1361, IEC 61966-2-4 709, SMPTE RP177
Audio
ID                               : 2
Format                           : AC-3
Format/Info                      : Audio Coding 3
Mode extension                   : CM (complete main)
Codec ID                         : A_AC3
Duration                         : 1h 43mn
Bit rate mode                    : Constant
Bit rate                         : 384 Kbps
Channel(s)                       : 6 channels
Channel positions                : Front: L C R, Side: L R, LFE
Sampling rate                    : 48.0 KHz
Bit depth                        : 16 bits
Stream size                      : 285 MiB (6%)
Language                         : Russian
Text #1
ID                               : 3
Format                           : UTF-8
Codec ID                         : S_TEXT/UTF8
Codec ID/Info                    : UTF-8 Plain Text
Language                         : Russian
Text #2
ID                               : 4
Format                           : UTF-8
Codec ID                         : S_TEXT/UTF8
Codec ID/Info                    : UTF-8 Plain Text
Menu
00:00:00.000                     : en:Chapter 01
00:05:52.226                     : en:Chapter 02
00:12:29.373                     : en:Chapter 03
00:19:11.692                     : en:Chapter 04
00:24:05.068                     : en:Chapter 05
00:30:17.607                     : en:Chapter 06
00:35:57.613                     : en:Chapter 07
00:40:13.786                     : en:Chapter 08
00:46:33.832                     : en:Chapter 09
00:52:19.761                     : en:Chapter 10
00:59:32.569                     : en:Chapter 11
01:05:19.415                     : en:Chapter 12
01:11:59.815                     : en:Chapter 13
01:20:39.501                     : en:Chapter 14
01:29:02.962                     : en:Chapter 15
01:34:14.774                     : en:Chapter 16


Скриншоты

     
     

_________________
Человек – это канат, натянутый между животным и сверхчеловеком, – канат над пропастью.
В человеке ценно то, что он мост, а не цель. Фридрих Ницше
Other forum [Profile] [PM]
Display posts from previous:    
Reply to topic

The time now is: Today 04:48

All times are GMT + 3 Hours



You cannot post new topics in this forum
You cannot reply to topics in this forum
You cannot edit your posts in this forum
You cannot delete your posts in this forum
You cannot vote in polls in this forum
You cannot attach files in this forum
You cannot download files in this forum