Today is a free download without charge Download

Близость / Closer [ Майк Николс (2004) драма, мелодрама , BDRip 1080p ]

Reply to topic
 
Author
Message

Delia ®

Gender:

Longevity: 10 years

Posts: 1821

Торрент-статистика

Post 23-Apr-2012 23:12

[Quote]

Близость / Closer«Those who love at first sight are traitors at every glance.»--
Год выпуска: 2004
Страна: США , Великобритания
Жанр: драма, мелодрама, ...
Продолжительность: 01:43:51
Перевод: Профессиональный (дублированный) Blu-ray CEE
Субтитры: Russian , English (srt)
Режиссер: Майк Николс
Сценарий: Патрик Марбер
Продюсер: Мэри Бэйли, Майк Николс, Дункан Рейд, ...
Оператор: Стивен Голдблатт
Композитор: Стивен Патрик Моррисси, Лайам Хоулетт, Вольфганг Амадей Моцарт, ...
Художник: Тим Хэтли, Грант Армстронг, Ханна Моусли, ...
Монтаж: Джон Блум, Антония Ван Дриммелен- В ролях: Натали Портман (Natalie Portman), Джуд Лоу (Jude Law), Джулия Робертс (Julia Roberts), Клайв Оуэн (Clive Owen), Ник Хоббс (Nick Hobbs), Колин Стинтон (Colin Stinton), Бенхэм Стив (Steve Benham), Элизабет Бауэр (Elizabeth Bower), Жаклин Тиффани Браун (Jaclynn Tiffany Brown), Майкл Хейли (Michael Haley), Стив Морфью (Steve Morphew), Абдул Попула (Abdul Popoola), Animesh Raval, Питер Рник (Peter Rnic), Брэт Йонт (Bret Yount)
Описание: Человек страдает, когда не получает того, чего хочет. Но еще больше он страдает, когда не может понять, чего он хочет. .. Молодой писатель Дэн влюблен в стриптизершу Элис, хотя не прочь закрутить роман с модным фотографом Анной. В то же время мрачный мачо Ларри становится бойфрендом Анны, однако встречается и с Элис. И никто из них не способен разобраться в своих чувствах и окончательно определиться, с кем же он желает остаться. Отношения внутри любовного четырехугольника постепенно накаляются, бросая героев в пучину страстей и неумолимо приближая их к неожиданной, парадоксальной развязке...-Рейтинг MPAA: -- --Качество: BDRip1080p
Формат: MKV
Видео кодек: H.264 (AVC)
Аудио кодеk: AC3
Видео: 1920x1040 (16:9), 23.976 fps, AVC, 5 643 Kbps
Аудио: AC3, 384 Kbps, 48.0 KHz, 6 ch RUS Dub

Отдельно на народ.ру:
Russian,384 Кбит/сек, 48,0 КГц, 16 бит, 6 каналов, AC-3 (MVO R5)
Russian, 384 Кбит/сек, 48,0 КГц, 16 бит, 6 каналов, AC-3 ( DVO )
Russian, 384 Кбит/сек, 48,0 КГц, 16 бит, 6 каналов, AC-3 (DVO)
Russian, 384 Кбит/сек, 48,0 КГц, 16 бит, 6 каналов, AC-3 ( DVO Tycoon-studio )
Russian 384 Кбит/сек, 48,0 КГц, 16 бит, 6 каналов, AC-3 (AVO Ю.Немахов )
English,384 Кбит/сек, 48,0 КГц, 16 бит, 6 каналов, AC-3

МедиаИнфо

Код:
General
Complete name                    : Closer.2004BDRip1080p-F.HD.mkv
Format                           : Matroska
File size                        : 4.37 GiB
Duration                         : 1h 43mn
Overall bit rate                 : 6 023 Kbps
Encoded date                     : UTC 2012-04-23 18:56:22
Writing application              : mkvmerge v5.5.0 ('Healer') built on Apr  6 2012 21:43:24
Writing library                  : libebml v1.2.3 + libmatroska v1.3.0
Video
ID                               : 1
Format                           : AVC
Format/Info                      : Advanced Video Codec
Format profile                   : [email protected]
Format settings, CABAC           : Yes
Format settings, ReFrames        : 4 frames
Muxing mode                      : Container [email protected]
Codec ID                         : V_MPEG4/ISO/AVC
Duration                         : 1h 43mn
Bit rate                         : 5 643 Kbps
Width                            : 1 920 pixels
Height                           : 1 040 pixels
Display aspect ratio             : 16:9
Frame rate                       : 23.976 fps
Color space                      : YUV
Chroma subsampling               : 4:2:0
Bit depth                        : 8 bits
Scan type                        : Progressive
Bits/(Pixel*Frame)               : 0.118
Stream size                      : 4.00 GiB (92%)
Writing library                  : x264 core 122 r2184 5c85e0a
Encoding settings                : cabac=1 / ref=4 / deblock=1:-3:-3 / analyse=0x3:0x113 / me=umh / subme=10 / psy=1 / psy_rd=0.80:0.10 / mixed_ref=1 / me_range=48 / chroma_me=1 / trellis=2 / 8x8dct=1 / cqm=0 / deadzone=21,11 / fast_pskip=0 / chroma_qp_offset=-3 / threads=6 / sliced_threads=0 / nr=0 / decimate=0 / interlaced=0 / bluray_compat=0 / constrained_intra=0 / bframes=8 / b_pyramid=2 / b_adapt=2 / b_bias=0 / direct=3 / weightb=1 / open_gop=0 / weightp=2 / keyint=240 / keyint_min=23 / scenecut=40 / intra_refresh=0 / rc=2pass / mbtree=0 / bitrate=5643 / ratetol=1.0 / qcomp=0.70 / qpmin=0 / qpmax=69 / qpstep=4 / cplxblur=20.0 / qblur=0.5 / ip_ratio=1.40 / pb_ratio=1.30 / aq=2:0.90
Color primaries                  : BT.709-5, BT.1361, IEC 61966-2-4, SMPTE RP177
Transfer characteristics         : BT.709-5, BT.1361
Matrix coefficients              : BT.709-5, BT.1361, IEC 61966-2-4 709, SMPTE RP177
Audio
ID                               : 2
Format                           : AC-3
Format/Info                      : Audio Coding 3
Mode extension                   : CM (complete main)
Codec ID                         : A_AC3
Duration                         : 1h 43mn
Bit rate mode                    : Constant
Bit rate                         : 384 Kbps
Channel(s)                       : 6 channels
Channel positions                : Front: L C R, Side: L R, LFE
Sampling rate                    : 48.0 KHz
Bit depth                        : 16 bits
Stream size                      : 285 MiB (6%)
Language                         : Russian
Text #1
ID                               : 3
Format                           : UTF-8
Codec ID                         : S_TEXT/UTF8
Codec ID/Info                    : UTF-8 Plain Text
Language                         : Russian
Text #2
ID                               : 4
Format                           : UTF-8
Codec ID                         : S_TEXT/UTF8
Codec ID/Info                    : UTF-8 Plain Text
Menu
00:00:00.000                     : en:Chapter 01
00:05:00.000                     : en:Chapter 02
00:10:00.000                     : en:Chapter 03
00:15:00.000                     : en:Chapter 04
00:20:00.000                     : en:Chapter 05
00:25:00.000                     : en:Chapter 06
00:30:00.000                     : en:Chapter 07
00:35:00.000                     : en:Chapter 08
00:40:00.000                     : en:Chapter 09
00:45:00.000                     : en:Chapter 10
00:50:00.000                     : en:Chapter 11
00:55:00.000                     : en:Chapter 12
01:00:00.000                     : en:Chapter 13
01:05:00.000                     : en:Chapter 14
01:10:00.000                     : en:Chapter 15
01:15:00.000                     : en:Chapter 16
01:20:00.000                     : en:Chapter 17
01:25:00.000                     : en:Chapter 18
01:30:00.000                     : en:Chapter 19
01:35:00.000                     : en:Chapter 20
01:40:00.000                     : en:Chapter 21

Знаете ли Вы, что...

» Изначально Кейт Бланшетт должна была сыграть Анну, но из-за беременности она покинула проект.
» Клайв Оуэн играл Дэна в оригинальной театральной постановке.
» Опера, на которую опаздывают Дэн и Анна, и которую зритель может слышать на заднем фоне, - «Cosi Fan Tutte».
» Парк, где гуляют Дэн и Элис, - Постман Парк в Лондоне, недалеко от Собора Святого Павла.
» На выставке Анны в первый и последний раз четыре главных персонажа фильма собираются вместе.
» В оригинальной бродвейской постановке сыграли следующие актеры: Анна Фрил – Элис, Руперт Грейвз – Дэн, Киаран Хиндс – Ларри, Наташа Ричардсон – Анна.
» Дэмиэн Райс, исполнивший песню «Blower's Daughter», также написал для картины одноименную песню – «Близость» - однако она не была завершена на момент выхода фильма, поэтому и не вошла в саундтрек.
» Фильм основан на известной пьесе Патрика Марбера.
» По совместному решению Натали Портман и режиссёра Майка Николса в фильм не вошли откровенные сцены, когда героиня Портман, полностью обнаженная, показывает стриптиз Ларри, персонажу Клайва Оуэна.


Скриншоты

     
     

_________________
Человек – это канат, натянутый между животным и сверхчеловеком, – канат над пропастью.
В человеке ценно то, что он мост, а не цель. Фридрих Ницше
Other forum [Profile] [PM]
Display posts from previous:    
Reply to topic

The time now is: Today 20:25

All times are GMT + 3 Hours



You cannot post new topics in this forum
You cannot reply to topics in this forum
You cannot edit your posts in this forum
You cannot delete your posts in this forum
You cannot vote in polls in this forum
You cannot attach files in this forum
You cannot download files in this forum