Today is a free download without charge Download

Discovery. В погоне за кометой: Розетта / Landing on a Comet: The Rosetta Mission (2014) HDTVRip [H.264/720p]

Reply to topic
 
Author
Message

Omen ®

Longevity: 7 years 10 months

Posts: 181087

Торрент-статистика

Post 19-May-2015 21:59

[Quote]

Discovery. В погоне за кометой: Розетта
Landing on a Comet: The Rosetta Mission
- Режиссер / Телекомпания: Шилли Айрс / Discovery Science
Страна: США
Год выпуска: 2014
Жанр: Документальный, научно-познавательный, космос
Продолжительность: 00:48:07
Перевод: Одноголосый закадровый (профессиональный)
Видеокодек: MPEG-4 AVC/H.264
Битрейт видео: ~4 000 Kбит/с
Размер кадра: 1280 x 720
Качество видео: HDTVRip [720p]
Аудио: MP3, 2 ch, 128 Кбит/с
Описание: 12 января 2003 года ракета-носитель "Ариан-5" была доставлена на космодром "Куру", расположенный в Южной Америке с аппаратом "Розетта", приготовленным для запуска, однако запуск не состоялся: при старте произошел отказ двигателей. Старт был перенесен на 26 февраля 2004 года, однако времени для подготовки не хватило. После двух провальных попыток ESA предприняли третью: 2 марта 2004 года ракета "Ариан 5G+" оторвалась от Земли. В ноябре 2014 года от Розетты отделиться спускаемый модуль "Филы". Спустя несколько часов произойдет контакт с кометой и пружинный механизм выпустит гарпун, призванный надежно закрепить устройство на комете и исключить риск ухода в открытый космос.

MediaInfo

Общее
Уникальный идентификатор : 58854025133541602049218642520999822375 (0x2C46DF78AF163A91C83B0C9578618427)
Полное имя : D:\Temp\DiscoveryScience.Landing.on.a.comet.Rosetta.HDTVRip.720p.mkv
Формат : Matroska
Версия формата : Version 2
Размер файла : 1,39 Гбайт
Продолжительность : 48 м.
Общий поток : 4124 Кбит/сек
Программа кодирования : Lavf52.39.0
Библиотека кодирования : Lavf52.39.0
Видео
Идентификатор : 1
Формат : AVC
Формат/Информация : Advanced Video Codec
Профиль формата : [url=mailto:[email protected]][email protected][/url]
Параметр CABAC формата : Да
Параметр ReFrames формата : 2 кадра
Идентификатор кодека : V_MPEG4/ISO/AVC
Продолжительность : 48 м.
Битрейт : 4000 Кбит/сек
Ширина : 1280 пикселей
Высота : 720 пикселей
Соотношение сторон : 16:9
Режим частоты кадров : Постоянный
Частота кадров : 25,000 кадров/сек
Цветовое пространство : YUV
Субдискретизация насыщенности : 4:2:0
Битовая глубина : 8 бит
Тип развёртки : Прогрессивная
Бит/(Пиксели*Кадры) : 0.174
Размер потока : 1,32 Гбайт (95%)
Библиотека кодирования : x264 core 77
Настройки программы : cabac=1 / ref=1 / deblock=1:0:0 / analyse=0x1:0x11 / me=hex / subme=5 / psy=1 / psy_rd=0.0:0.0 / mixed_ref=0 / me_range=16 / chroma_me=1 / trellis=1 / 8x8dct=0 / cqm=0 / deadzone=21,11 / chroma_qp_offset=0 / threads=2 / nr=0 / decimate=1 / mbaff=0 / constrained_intra=0 / bframes=2 / b_pyramid=0 / b_adapt=1 / b_bias=0 / direct=1 / wpredb=0 / keyint=250 / keyint_min=25 / scenecut=40 / rc_lookahead=40 / rc=abr / mbtree=1 / bitrate=4000 / ratetol=1.0 / qcomp=0.60 / qpmin=10 / qpmax=51 / qpstep=4 / ip_ratio=1.41 / aq=1:1.00
Default : Да
Forced : Нет
Аудио
Идентификатор : 2
Формат : MPEG Audio
Версия формата : Version 1
Профиль формата : Layer 3
Режим : Joint stereo
Расширение режима : MS Stereo
Идентификатор кодека : A_MPEG/L3
Идентификатор кодека/Подсказка : MP3
Продолжительность : 48 м.
Вид битрейта : Постоянный
Битрейт : 128 Кбит/сек
Каналы : 2 канала
Частота : 44,1 КГц
Метод сжатия : С потерями
Задержка видео : -40 мс.
Размер потока : 44,1 Мбайт (3%)
Default : Да
Forced : Нет
Скриншоты:
         
         
Other forum [Profile] [PM]
Display posts from previous:    
Reply to topic

The time now is: Today 09:23

All times are GMT + 3 Hours



You cannot post new topics in this forum
You cannot reply to topics in this forum
You cannot edit your posts in this forum
You cannot delete your posts in this forum
You cannot vote in polls in this forum
You cannot attach files in this forum
You cannot download files in this forum