Today is a free download without charge Download

Город мастеров медовых дел / Meemeistrite linn (Хейно Парс / Heino Pars) [1983, кукольный мультфильм, TVRip] MVO

Reply to topic
 
Author
Message

Omen ®

Longevity: 7 years 11 months

Posts: 181087

Торрент-статистика

Post 16-May-2015 12:00

[Quote]

Город мастеров медовых дел / Meemeistrite linn
Страна: СССР (Эстонская республика)
Жанр: кукольный мультфильм
Продолжительность: 00:19:52
Год выпуска: 1983
Перевод: Любительский (многоголосый закадровый)
Русские субтитры: нет
Режиссёр: Хейно Парс / Heino Pars
Русская озвучка: progulkin & Co
Описание: Познавательный мультфильм, в игровой форме рассказывающий об укладе жизни и порядках, установленных в пчелином улье.
Качество: TVRip
Формат: AVI
Видео: 2162 kbps, 640х512 (5:4), 25.000 fps, MPEG-4 Visual (XviD)
Аудио: 256 kbps, 44.1 kHz, 2 channels, MPEG Audio (MP3)
Субтитры: отсутствуют

Подробные технические данные

General
Complete name : Meemeistrite linn (1983).avi
Format : AVI
Format/Info : Audio Video Interleave
File size : 345 MiB
Duration : 19mn 52s
Overall bit rate : 2 430 Kbps
Writing application : Lavf55.33.100
Video
ID : 0
Format : MPEG-4 Visual
Format profile : [email protected]
Format settings, BVOP : No
Format settings, QPel : No
Format settings, GMC : No warppoints
Format settings, Matrix : Default (H.263)
Codec ID : XVID
Codec ID/Hint : XviD
Duration : 19mn 52s
Bit rate : 2 162 Kbps
Width : 640 pixels
Height : 512 pixels
Display aspect ratio : 5:4
Frame rate : 25.000 fps
Color space : YUV
Chroma subsampling : 4:2:0
Bit depth : 8 bits
Scan type : Progressive
Compression mode : Lossy
Bits/(Pixel*Frame) : 0.264
Stream size : 307 MiB (89%)
Writing library : XviD 64
Audio
ID : 1
Format : MPEG Audio
Format version : Version 1
Format profile : Layer 3
Mode : Joint stereo
Mode extension : MS Stereo
Codec ID : 55
Codec ID/Hint : MP3
Duration : 19mn 49s
Bit rate mode : Constant
Bit rate : 256 Kbps
Channel(s) : 2 channels
Sampling rate : 44.1 KHz
Compression mode : Lossy
Stream size : 36.3 MiB (11%)
Alignment : Aligned on interleaves
Interleave, duration : 26 ms (0.65 video frame)
Interleave, preload duration : 26 ms
Writing library : LAME3.99.5

Скриншоты

Other forum [Profile] [PM]
Similar theme
Forum Topic Author Torrent Replies Last Post
./templates/default/images/folder_dl.gif Приключения и квесты Small Town Terrors 3 Galdors Bluff Sammleredition / Террор в городке 3 Блеф Галдора Коллекционное издание [P] [RUS] (2015) Omen
3 | 0

0 | 2175

24

2015-06-13 15:00
Omen Latest
Display posts from previous:    
Reply to topic

The time now is: Today 20:04

All times are GMT + 3 Hours



You cannot post new topics in this forum
You cannot reply to topics in this forum
You cannot edit your posts in this forum
You cannot delete your posts in this forum
You cannot vote in polls in this forum
You cannot attach files in this forum
You cannot download files in this forum