Today is a free download without charge Download

Миccия нeвыпoлнимa: Прoтoкoл Фaнтoм / Missiоn: Impоssiblе - Ghоst Prоtосоl (Бrэд Бёrд / Вrаd Вird) [2011, США, ОАЭ, боевик, триллер, приключения, DVD9] R5 Dub Sub Rus + Original Eng

Reply to topic
 
Author
Message

Koralina ®

Longevity: 9 years 7 months

Posts: 994

Location: Lithuania

Торрент-статистика

Post 20-Apr-2012 17:27

[Quote]

Миссия невыполнима: Протокол Фантом / Mission: Impossible - Ghost Protocol«Плана нет. Помощи нет. Выбора нет» Страна: США, ОАЭ
Студия: Bad Robot, Filmworks Inc., Paramount Pictures, Skydance Productions, Stillking Films, TC Production
Жанр: боевик, триллер, приключения
Год выпуска: 2011
Мировая премьера: 7 декабря 2011
Российская премьера: 14 декабря 2011, «Централ Партнершип»
Дата выхода DVD: 26 апреля 2012, «Новый Диск»
Дата выхода Blu-Ray: 30 апреля 2012, «Новый Диск»
Продолжительность: 02:07:30
Перевод: Профессиональный (дублированный) [Лицензия]
Cубтитры: русские, английские, украинские
Оригинальная аудиодорожка: английскийРежиссер: Брэд Бёрд / Brad Bird
В ролях: Том Круз, Пола Пэттон, Саймон Пегг, Джереми Реннер, Микаэл Нюквист, Владимир Машков, Самули Эдельманн, Иван Шведов, Анил Капур, Леа Сейду
Описание: Специальный агент отряда «Миссия невыполнима» Итан Хант и его коллеги несправедливо обвинены в причастности к взрыву Кремля. Президент инициирует «Протокол Фантом», в результате которого спецподразделение ликвидировано, и Итан остается без какой-либо поддержки. Он намерен очистить свое доброе имя и предотвратить новую атаку, но делать это ему придется вместе с командой коллег, истинных мотивов которых он до конца не знает.Бонусы: Не выполнимые миссии, удаленные сцены
, ,
Релиз группы:
Качество: DVD9 R5
Формат: DVD-Video
Видео кодек: MPEG2
Аудио кодек: AC3
Видео: PAL 16:9 (720x576(0.490)) MPEG Video, 25,000 кадр/сек, 5077 Кбит/сек
Аудио #1: English (Dolby AC3, 6 ch) 448 Кбит/сек, 48,0 КГц
Аудио #2: Russian (Dolby AC3, 6 ch) 448 Кбит/сек, 48,0 КГц
Аудио #3: Ukrainian (Dolby AC3, 6 ch) 448 Кбит/сек, 48,0 КГц

DVDInfo

Title:
Size: 6.24 Gb ( 6 544 496 KBytes ) - DVD-9
Enabled regions: 1, 2, 3, 4, 5, 6, 7, 8
VTS_01 :
Play Length:
Video: NTSC 16:9 (720x480) VBR, Auto Pan&Scan
VTS_02 :
Play Length: 00:00:01
Video: PAL 4:3 (720x576) VBR
Subtitles:
Not specified
VTS_03 :
Play Length:
Video: PAL 16:9 (720x576) VBR, Auto Letterboxed
Audio:
Not specified (Dolby AC3, 2 ch)
Not specified (Dolby AC3, 2 ch)
Not specified (Dolby AC3, 2 ch)
Not specified (Dolby AC3, 2 ch)
Not specified (Dolby AC3, 2 ch)
Not specified (Dolby AC3, 2 ch)
Not specified (Dolby AC3, 2 ch)
Not specified (Dolby AC3, 2 ch)
Subtitles:
Not specified
Not specified
Not specified
Not specified
Not specified
Not specified
Not specified
Not specified
Not specified
Not specified
Not specified
Not specified
VTS_04 :
Play Length:
Video: NTSC 16:9 (720x480) VBR, Auto Pan&Scan
VTS_05 :
Play Length:
Video: NTSC 16:9 (720x480) VBR, Auto Pan&Scan
VTS_06 :
Play Length: 00:00:01+00:03:02+00:03:03
Video: PAL 16:9 (720x576) VBR, Auto Pan&Scan
Audio:
English (Dolby AC3, 2 ch)
Subtitles:
English
Russian
Ukrainian
VTS_07 :
Play Length:
Video: NTSC 16:9 (720x480) VBR, Auto Pan&Scan
VTS_08 :
Play Length:
Video: NTSC 16:9 (720x480) VBR, Auto Pan&Scan
VTS_09 :
Play Length:
Video: NTSC 16:9 (720x480) VBR, Auto Pan&Scan
VTS_10 :
Play Length:
Video: NTSC 16:9 (720x480) VBR, Auto Pan&Scan
VTS_11 :
Play Length: 00:00:23+02:07:30+00:00:15
Video: PAL 16:9 (720x576) VBR, Auto Pan&Scan
Audio:
English (Dolby AC3, 6 ch)
Russian (Dolby AC3, 6 ch)
Ukrainian (Dolby AC3, 6 ch)
Subtitles:
English
Russian
Ukrainian
English
Russian
Ukrainian
VTS_12 :
Play Length:
Video: NTSC 16:9 (720x480) VBR, Auto Pan&Scan
VTS_13 :
Play Length:
Video: PAL 16:9 (720x576) VBR, Auto Pan&Scan
VTS_14 :
Play Length:
Video: NTSC 16:9 (720x480) VBR, Auto Pan&Scan
VTS_15 :
Play Length:
Video: NTSC 16:9 (720x480) VBR, Auto Pan&Scan
VTS_16 :
Play Length:
Video: NTSC 16:9 (720x480) VBR, Auto Pan&Scan
VTS_17 :
Play Length:
Video: NTSC 16:9 (720x480) VBR, Auto Pan&Scan
VTS_18 :
Play Length: 00:00:01+00:02:06+00:01:13
Video: PAL 16:9 (720x576) VBR, Auto Pan&Scan
Audio:
English (Dolby AC3, 6 ch)
English (Dolby AC3, 2 ch)
Subtitles:
English
Russian
Ukrainian
English
Russian
Ukrainian
Menu Video:
PAL 16:9 (720x576) VBR
Auto Letterboxed
Menu Subtitles:
Not specified
Menu English Language Unit :
Root Menu
Chapter (PTT) Menu
Audio Menu
Angle menu

MediaInfo

Общее
Полное имя : J:\Новинки 2012\Missija.nevypolnima.Protokol.Fantom.2011.DVD9\VIDEO_TS\VTS_11_4.VOB
Формат : MPEG-PS
Размер файла : 1024 Мбайт
Продолжительность : 21 м.
Режим общего битрейта : Переменный
Общий поток : 6551 Кбит/сек
Видео
Идентификатор : 224 (0xE0)
Формат : MPEG Video
Версия формата : Version 2
Профиль формата : [email protected]
Параметр BVOP формата : Нет
Параметр матрицы формата : Выборочная
Параметр GOP формата : M=1, N=12
Продолжительность : 21 м.
Вид битрейта : Переменный
Битрейт : 5077 Кбит/сек
Максимальный битрейт : 9800 Кбит/сек
Ширина : 720 пикселей
Высота : 576 пикселей
Соотношение сторон : 16:9
Частота кадров : 25,000 кадров/сек
Стандарт вещания : Component
Цветовое пространство : YUV
Субдискретизация насыщенности : 4:2:0
Битовая глубина : 8 бит
Тип развёртки : Прогрессивная
Порядок развёртки : Верхнее поле первое
Метод сжатия : С потерями
Бит/(Пиксели*Кадры) : 0.490
Размер потока : 794 Мбайт (77%)
Основные цвета : BT.470-2 System B, BT.470-2 System G
Характеристики трансфера : BT.470-2 System B, BT.470-2 System G
Коэффициенты матрицы : BT.470-2 System B, BT.470-2 System G
Аудио #1
Идентификатор : 189 (0xBD)-128 (0x80)
Формат : AC-3
Формат/Информация : Audio Coding 3
Расширение режима : CM (complete main)
Параметр Endianness формата : Big
Режим смешивания : DVD-Video
Продолжительность : 21 м.
Вид битрейта : Постоянный
Битрейт : 448 Кбит/сек
Каналы : 6 каналов
Расположение каналов : Front: L C R, Side: L R, LFE
Частота : 48,0 КГц
Битовая глубина : 16 бит
Метод сжатия : С потерями
Задержка видео : -504 мс.
Размер потока : 70,0 Мбайт (7%)
Аудио #2
Идентификатор : 189 (0xBD)-129 (0x81)
Формат : AC-3
Формат/Информация : Audio Coding 3
Расширение режима : CM (complete main)
Параметр Endianness формата : Big
Режим смешивания : DVD-Video
Продолжительность : 21 м.
Вид битрейта : Постоянный
Битрейт : 448 Кбит/сек
Каналы : 6 каналов
Расположение каналов : Front: L C R, Side: L R, LFE
Частота : 48,0 КГц
Битовая глубина : 16 бит
Метод сжатия : С потерями
Задержка видео : -504 мс.
Размер потока : 70,0 Мбайт (7%)
Аудио #3
Идентификатор : 189 (0xBD)-130 (0x82)
Формат : AC-3
Формат/Информация : Audio Coding 3
Расширение режима : CM (complete main)
Параметр Endianness формата : Big
Режим смешивания : DVD-Video
Продолжительность : 21 м.
Вид битрейта : Постоянный
Битрейт : 448 Кбит/сек
Каналы : 6 каналов
Расположение каналов : Front: L C R, Side: L R, LFE
Частота : 48,0 КГц
Битовая глубина : 16 бит
Метод сжатия : С потерями
Задержка видео : -536 мс.
Размер потока : 70,0 Мбайт (7%)
Текст #1
Идентификатор : 189 (0xBD)-32 (0x20)
Формат : RLE
Формат/Информация : Run-length encoding
Режим смешивания : DVD-Video
Текст #2
Идентификатор : 189 (0xBD)-33 (0x21)
Формат : RLE
Формат/Информация : Run-length encoding
Режим смешивания : DVD-Video
Текст #3
Идентификатор : 189 (0xBD)-36 (0x24)
Формат : RLE
Формат/Информация : Run-length encoding
Режим смешивания : DVD-Video
Текст #4
Идентификатор : 189 (0xBD)-37 (0x25)
Формат : RLE
Формат/Информация : Run-length encoding
Режим смешивания : DVD-Video
Текст #5
Идентификатор : 189 (0xBD)-38 (0x26)
Формат : RLE
Формат/Информация : Run-length encoding
Режим смешивания : DVD-Video
Текст #6
Идентификатор : 189 (0xBD)-39 (0x27)
Формат : RLE
Формат/Информация : Run-length encoding
Режим смешивания : DVD-Video
Текст #7
Идентификатор : 189 (0xBD)-42 (0x2A)
Формат : RLE
Формат/Информация : Run-length encoding
Режим смешивания : DVD-Video
Текст #8
Идентификатор : 189 (0xBD)-43 (0x2B)
Формат : RLE
Формат/Информация : Run-length encoding
Режим смешивания : DVD-Video

Скриншоты меню

             

Скриншоты фильма

                   

Скриншоты доп. материалов

           

_________________
Other forum [Profile] [PM]
Display posts from previous:    
Reply to topic

The time now is: Today 04:56

All times are GMT + 3 Hours



You cannot post new topics in this forum
You cannot reply to topics in this forum
You cannot edit your posts in this forum
You cannot delete your posts in this forum
You cannot vote in polls in this forum
You cannot attach files in this forum
You cannot download files in this forum