Today is a free download without charge Download

Бомбила / Сезон: 1 Серии: 1-16 из 16 (Александр Калугин) [2011, Россия, боевик, комедия, криминал, 2xDVD9] R5 Original Rus

Reply to topic
 
Author
Message

Koralina ®

Longevity: 10 years

Posts: 994

Location: Lithuania

Торрент-статистика

Post 20-Apr-2012 14:46

[Quote]

Бомбила
Страна: Россия
Студия: компания «Мостелефильм»
Жанр: боевик, комедия, криминал
Год выпуска: 2011
Российская премьера: 16 мая 2011
Дата выхода DVD: 18 апреля 2012, «Виккон»
Продолжительность: 720 мин.
Перевод: Оригинал [Лицензия]
Cубтитры: нет
Оригинальная аудиодорожка: русскийРежиссер: Александр Калугин
В ролях: Дмитрий Миллер, Наталия Антонова, Максим Щёголев, Анна Банщикова, Пелагея Максимова, Егор Баринов, Александр Яцко, Сергей Векслер, Юрий Нифонтов, Сергей Никоненко, Валерий Баринов, Игорь Верник, Константин Желдин, Вероника Лысакова, Ксения Березина, Дмитрий Слинкин, Константин Тополага, Юрий Шерстнев, Олег Комаров, Роман Кириллов, Александр Калугин, Мария Ильюхина, Юрий Кузьменков, Татьяна Сидоренко, Вадим Медведев, Дальвин Щербаков, Алан Догузов, Анатолий Морозов, Алексей Малашкин, Александр Коржов, Максим Пинскер, Юлия Ковалевская, Евгений Сафронов, Александр Шувалов
Описание: Бывший спецназовец Артем Горохов обвиняется в убийстве крупного бизнесмена. Никто не верит, что Артем — обыкновенный «бомбила», а не супер-киллер. Артему грозит пожизненное заключение.
Но неунывающий Артем способен найти нестандартный выход из любой ситуации. Главное оружие Артема — отменное чувство юмора, которое помогает ему выстоять в сложных ситуациях, сбежать из СИЗО и разоблачить планы воротил наркобизнеса. Артема преследуют и банда наркоторговцев, и оперативники из отдела специальных расследований. Но догнать таксиста не так-то просто.

Релиз группы:
Качество: 2xDVD9 R5
Формат: DVD-Video
Видео кодек: MPEG2
Аудио кодек: AC3
Видео: PAL 4:3 (720x576(41.640)) MPEG Video, 25,000 кадр/сек, 8000 Кбит/сек
Аудио: Russian (Dolby AC3, 2 ch) 256 Кбит/сек, 48,0 КГц

DVDInfo DVD-1

Title:
Size: 7.74 Gb ( 8 121 208 KBytes ) - DVD-9
Enabled regions: 1, 2, 3, 4, 5, 6, 7, 8
VTS_01 :
Play Length: 06:09:48
Video: PAL 4:3 (720x576) VBR
Audio:
English (Dolby AC3, 2 ch)
Menu Video:
PAL 4:3 (720x576) VBR
Menu Audio:
Not specified (Dolby AC3, 2 ch)
Menu Subtitles:
Not specified
Menu English Language Unit :
Root Menu

DVDInfo DVD-2

Title:
Size: 7.69 Gb ( 8 068 274 KBytes ) - DVD-9
Enabled regions: 1, 2, 3, 4, 5, 6, 7, 8
VTS_01 :
Play Length: 06:07:56
Video: PAL 4:3 (720x576) VBR
Audio:
English (Dolby AC3, 2 ch)
Menu Video:
PAL 4:3 (720x576) VBR
Menu Audio:
Not specified (Dolby AC3, 2 ch)
Menu Subtitles:
Not specified
Menu English Language Unit :
Root Menu

MediaInfo

Общее
Полное имя : J:\Новинки 2012\Bombila.2011.2хDVD9\DVD-1\VIDEO_TS\VTS_01_1.VOB
Формат : MPEG-PS
Размер файла : 1024 Мбайт
Продолжительность : 19 с.
Режим общего битрейта : Переменный
Общий поток : 441 Мбит/сек
Видео
Идентификатор : 224 (0xE0)
Формат : MPEG Video
Версия формата : Version 2
Профиль формата : [email protected]
Параметр BVOP формата : Да
Параметр матрицы формата : Выборочная
Продолжительность : 19 с.
Вид битрейта : Переменный
Битрейт : 432 Мбит/сек
Максимальный битрейт : 8000 Кбит/сек
Ширина : 720 пикселей
Высота : 576 пикселей
Соотношение сторон : 4:3
Частота кадров : 25,000 кадров/сек
Стандарт вещания : PAL
Цветовое пространство : YUV
Субдискретизация насыщенности : 4:2:0
Битовая глубина : 8 бит
Тип развёртки : Прогрессивная
Метод сжатия : С потерями
Бит/(Пиксели*Кадры) : 41.640
Размер потока : 1003 Мбайт (98%)
Аудио
Идентификатор : 189 (0xBD)-128 (0x80)
Формат : AC-3
Формат/Информация : Audio Coding 3
Расширение режима : CM (complete main)
Режим смешивания : DVD-Video
Продолжительность : 19 с.
Вид битрейта : Постоянный
Битрейт : 256 Кбит/сек
Каналы : 2 канала
Расположение каналов : Front: L R
Частота : 48,0 КГц
Битовая глубина : 16 бит
Метод сжатия : С потерями
Размер потока : 601 Кбайт (0%)

Сканы обложки и дисков

     

Скриншоты меню

       

Скриншоты сериала

                   

_________________
Other forum [Profile] [PM]
Display posts from previous:    
Reply to topic

The time now is: Today 12:39

All times are GMT + 3 Hours



You cannot post new topics in this forum
You cannot reply to topics in this forum
You cannot edit your posts in this forum
You cannot delete your posts in this forum
You cannot vote in polls in this forum
You cannot attach files in this forum
You cannot download files in this forum