Today is a free download without charge Download

Рождественская сказка / Різдвяна казка (Анатолий Трифонов / Анатолій Трифонов) [1993 г., мультфильм, DVB]

Reply to topic
 
Author
Message

Omen ®

Longevity: 7 years 11 months

Posts: 181087

Торрент-статистика

Post 14-May-2015 00:14

[Quote]

Рождественская сказка / Різдвяна казка
Страна: Украина
Жанр: мультфильм
Год выпуска: 1993
Продолжительность: 00:15:23
Режиссёр: Анатолий Трифонов / Анатолій Трифонов
Описание: мультфильм о том, как перед Рождеством слеза бедной девушки Маруси сделала равнодушное и холодное сердце богача теплее. ...
Доп. информация: по мотивам сказки Марко Черемши «Слеза».

Релиз группы:
Трансляция спутникового канала:

Качество видео: DVB
Формат видео: MPEG-PS
Видео: MPEG2 Video, [email protected] (4:3), анаморф, 25 fps, 2800 kbps
Аудио: Русский, MPEG Audio, 2 сh, 48 kHz, 192 Kbps

MediaInfo

D:\Рождественская сказка. (1993)_DVB by SLuMeP.mpg
General
Complete name : D:\Рождественская сказка. (1993)_DVB by SLuMeP.mpg
Format : MPEG-PS
File size : 331 MiB
Duration : 15mn 23s
Overall bit rate mode : Variable
Overall bit rate : 3 005 Kbps
Video #224
ID : 224 (0xE0)
Format : MPEG Video
Format version : Version 2
Format profile : [email protected]
Format settings, BVOP : Yes
Format settings, Matrix : Custom
Format settings, GOP : Variable
Duration : 15mn 23s
Bit rate mode : Variable
Bit rate : 2 753 Kbps
Maximum bit rate : 5 000 Kbps
Width : 704 pixels
Height : 576 pixels
Display aspect ratio : 4:3
Frame rate : 25.000 fps
Standard : PAL
Color space : YUV
Chroma subsampling : 4:2:0
Bit depth : 8 bits
Scan type : Interlaced
Scan order : Top Field First
Compression mode : Lossy
Bits/(Pixel*Frame) : 0.272
Time code of first frame : 00:00:00:00
Time code source : Group of pictures header
Stream size : 303 MiB (92%)
Audio #192
ID : 192 (0xC0)
Format : MPEG Audio
Format version : Version 1
Format profile : Layer 2
Duration : 15mn 23s
Bit rate mode : Constant
Bit rate : 192 Kbps
Channel(s) : 2 channels
Sampling rate : 48.0 KHz
Compression mode : Lossy
Stream size : 21.1 MiB (6%)

Скриншоты


Other forum [Profile] [PM]
Display posts from previous:    
Reply to topic

The time now is: Today 20:09

All times are GMT + 3 Hours



You cannot post new topics in this forum
You cannot reply to topics in this forum
You cannot edit your posts in this forum
You cannot delete your posts in this forum
You cannot vote in polls in this forum
You cannot attach files in this forum
You cannot download files in this forum