Today is a free download without charge Download

Алеша Попович и Тугарин Змей (Константин Бронзит) [2014 г., мультфильм, фэнтези, мелодрама, комедия, BDRip]

Reply to topic
 
Author
Message

Omen ®

Longevity: 7 years 11 months

Posts: 181087

Торрент-статистика

Post 13-May-2015 00:00

[Quote]

Алеша Попович и Тугарин Змей Страна: Россия
Жанр: мультфильм, фэнтези, мелодрама, комедия
Продолжительность: 01:18:51
Год выпуска: 2004-Перевод : Оригинал Россия
Русские субтитры: нет
Режиссёр: Константин Бронзит-Роли озвучивали: Олег Куликович, Лия Медведева, Дмитрий Высоцкий, Анатолий Петров, Наталья Данилова, Сергей Маковецкий, Иван Краско, Татьяна Иванова, Михаил Черняк, Константин Бронзит-Описание: В древнем русском городе Ростове родился в поповской семье сын. Назвали его родители Алешей. А когда он вырос и стал богатырем, то совершил такие подвиги, что стал героем русских былин Алешей Поповичем. Только подвиги его начались с конфуза…
Подступила к Ростову тугарская вражеская орда во главе с Тугарином Змеем и потребовала, чтобы жители города выплатили дань. Поповский сын предложил план действий. Народ этот план одобрил и собрал гору золота. Алеша же умудрился собственный план «благополучно» провалить, да с каким треском!
И золото упустил, и полгорода разрушил. После чего поклялся — Тугарина Змея изловить и золото вернуть. Отправился Алеша Попович в путь вместе с дедом Тихоном, который мальчика вырастил и воспитал, а чуть позже компанию им составили говорящий конь Юлий, купленный у цыган, почти 16-летняя красавица Любава, ее бабка и их ослик Моисей…- -Качество: BDRip
Формат: AVI
Видео: 688x368 (1.87:1), 23,976 fps, XviD 66 ~1 188 kbps avg, 0.20 bit/pixel
Аудио: 48.0 kHz, MPEG Layer 3, 2/0 (L,R) ch, ~128 kbps
Субтитры: отсутствуют

MI

General
Complete name : D:\incarcare\rip gata\Alesha.Popovich.I.Tugarin.Zmei.2004.BDRip747[dragomire]_rutracker.org.avi
Format : AVI
Format/Info : Audio Video Interleave
File size : 747 MiB
Duration : 1h 18mn
Overall bit rate : 1 325 Kbps
Writing application : VirtualDubMod 1.5.10.2 (build 2540/release)
Writing library : VirtualDubMod build 2540/release
Video
ID : 0
Format : MPEG-4 Visual
Format profile : Advanced [email protected]
Format settings, BVOP : 1
Format settings, QPel : No
Format settings, GMC : No warppoints
Format settings, Matrix : Custom
Codec ID : XVID
Codec ID/Hint : XviD
Duration : 1h 18mn
Bit rate : 1 188 Kbps
Width : 688 pixels
Height : 368 pixels
Display aspect ratio : 1.85:1
Frame rate : 23.976 fps
Color space : YUV
Chroma subsampling : 4:2:0
Bit depth : 8 bits
Scan type : Progressive
Compression mode : Lossy
Bits/(Pixel*Frame) : 0.196
Stream size : 670 MiB (90%)
Writing library : XviD 66
Audio
ID : 1
Format : MPEG Audio
Format version : Version 1
Format profile : Layer 3
Codec ID : 55
Codec ID/Hint : MP3
Duration : 1h 18mn
Bit rate mode : Constant
Bit rate : 128 Kbps
Channel(s) : 2 channels
Sampling rate : 48.0 KHz
Compression mode : Lossy
Stream size : 72.2 MiB (10%)
Alignment : Aligned on interleaves
Interleave, duration : 42 ms (1.00 video frame)
Interleave, preload duratio : 504 ms

Скриншоты

Other forum [Profile] [PM]
Display posts from previous:    
Reply to topic

The time now is: Today 08:58

All times are GMT + 3 Hours



You cannot post new topics in this forum
You cannot reply to topics in this forum
You cannot edit your posts in this forum
You cannot delete your posts in this forum
You cannot vote in polls in this forum
You cannot attach files in this forum
You cannot download files in this forum