Today is a free download without charge Download

Кровавый алмаз / Blood Diamond [ Эдвард Цвик (2006) триллер, драма, приключения, BDRip 1080p ]

Reply to topic
 
Author
Message

Delia ®

Gender:

Longevity: 10 years

Posts: 1821

Торрент-статистика

Post 20-Apr-2012 09:41

[Quote]

Кровавый алмаз / Blood Diamond«Ценою в целую жизнь»--
Год выпуска: 2006
Страна: США , Германия
Жанр: триллер, драма, приключения, ...
Продолжительность: 02:23:21
Перевод: Профессиональный (дублированный)
Субтитры: русские, английские (srt)
Режиссер: Эдвард Цвик
Сценарий: Чарльз Ливитт, С. Гэби Митчел
Продюсер: Паула Вайнштейн, Эдвард Цвик, Джиллиан Горфил, ...
Оператор: Эдуарду Серра
Композитор: Джеймс Ньютон Ховард
Художник: Дэн Вейл, Рэй Чан, Даран Фулхэм, ...
Монтаж: Стивен Розенблюм- В ролях: Леонардо ДиКаприо (Leonardo DiCaprio), Джимон Хунсу (Djimon Hounsou), Дженнифер Коннелли (Jennifer Connelly), Карузо Кеперс (Caruso Kuypers), Арнольд Вослу (Arnold Vosloo), Энтони Коулмэн (Antony Coleman), Бену Мабхена (Benu Mabhena), Анойнтинг Лукола (Anointing Lukola), Дэвид Хэрвуд (David Harewood), Бейзил Уоллес (Basil Wallace), Джими Мистри (Jimi Mistry), Майкл Шин (Michael Sheen), Мариус Вейерс (Marius Weyers), Стивен Коллинз (Stephen Collins), Нтаре Мвине (Ntare Mwine), Bouba Badiane, Ато Эссонда (Ato Essandoh), Перси Матсемела (Percy Matsemela), Ronnie Nyakale, Тони Кгороге (Tony Kgoroge)
Описание: 1999, Сьерра-Леоне. Гражданская война. Кровь и хаос. В этой безрадостной атмосфере орудует ловкий контрабандист, специальность которого — бриллианты. Ему нет особенного дела, что эти камешки используются для дальнейшего нагнетания межнациональной розни.Но однажды контрабандист встречает местного рыбака, у которого пропал сын — его, говорят, забрали в «детскую армию», используемую на фронтах гражданской войны. И два разных человека образуют противоестественную коалицию&3;-Рейтинг MPAA: -- --Качество: BDRip1080р
Формат: MKV
Видео кодек: H.264 (AVC)
Аудио кодеk: AC3
Видео: 1920x800 (2.40:1), 23.976 fps, AVC, 3 982 Kbps
Аудио: AC3, 384 Kbps, 48.0 KHz, 6 ch RUS Dub

Отдельно на народ.ру:
384 Кбит/сек, 48,0 КГц, 16 бит, 6 каналов, AC-3 ( П.Гланц и И.Королева )
384 Кбит/сек, 48,0 КГц, 16 бит, 6 каналов, AC-3 ( С.Рябов )
384 Кбит/сек, 48,0 КГц, 16 бит, 6 каналов, AC-3 ( В.Архипов )
384 Кбит/сек, 48,0 КГц, 16 бит, 6 каналов, AC-3 ( А.Гаврилов. )
384 Кбит/сек, 48,0 КГц, 16 бит, 6 каналов, AC-3 ( Оригинальная дорожка )

МедиаИнфо

Код:
General
Complete name                    : Krovavyj.Almaz.2006BDRip1080p-F.HD.mkv
Format                           : Matroska
File size                        : 4.37 GiB
Duration                         : 2h 23mn
Overall bit rate                 : 4 364 Kbps
Encoded date                     : UTC 2012-04-19 17:52:11
Writing application              : mkvmerge v5.5.0 ('Healer') built on Apr  6 2012 21:43:24
Writing library                  : libebml v1.2.3 + libmatroska v1.3.0
Video
ID                               : 1
Format                           : AVC
Format/Info                      : Advanced Video Codec
Format profile                   : [email protected]
Format settings, CABAC           : Yes
Format settings, ReFrames        : 5 frames
Muxing mode                      : Container [email protected]
Codec ID                         : V_MPEG4/ISO/AVC
Duration                         : 2h 23mn
Bit rate                         : 3 982 Kbps
Width                            : 1 920 pixels
Height                           : 800 pixels
Display aspect ratio             : 2.40:1
Frame rate                       : 23.976 fps
Color space                      : YUV
Chroma subsampling               : 4:2:0
Bit depth                        : 8 bits
Scan type                        : Progressive
Bits/(Pixel*Frame)               : 0.108
Stream size                      : 3.90 GiB (89%)
Writing library                  : x264 core 122 r2184 5c85e0a
Encoding settings                : cabac=1 / ref=5 / deblock=1:-3:-3 / analyse=0x3:0x113 / me=umh / subme=10 / psy=1 / psy_rd=0.90:0.00 / mixed_ref=1 / me_range=48 / chroma_me=1 / trellis=2 / 8x8dct=1 / cqm=0 / deadzone=21,11 / fast_pskip=0 / chroma_qp_offset=-2 / threads=6 / sliced_threads=0 / nr=0 / decimate=0 / interlaced=0 / bluray_compat=0 / constrained_intra=0 / bframes=8 / b_pyramid=2 / b_adapt=2 / b_bias=0 / direct=3 / weightb=1 / open_gop=0 / weightp=2 / keyint=240 / keyint_min=23 / scenecut=40 / intra_refresh=0 / rc=2pass / mbtree=0 / bitrate=3982 / ratetol=1.0 / qcomp=0.70 / qpmin=0 / qpmax=69 / qpstep=4 / cplxblur=20.0 / qblur=0.5 / ip_ratio=1.40 / pb_ratio=1.30 / aq=1:0.90
Color primaries                  : BT.709-5, BT.1361, IEC 61966-2-4, SMPTE RP177
Transfer characteristics         : BT.709-5, BT.1361
Matrix coefficients              : BT.709-5, BT.1361, IEC 61966-2-4 709, SMPTE RP177
Audio
ID                               : 2
Format                           : AC-3
Format/Info                      : Audio Coding 3
Mode extension                   : CM (complete main)
Codec ID                         : A_AC3
Duration                         : 2h 23mn
Bit rate mode                    : Constant
Bit rate                         : 384 Kbps
Channel(s)                       : 6 channels
Channel positions                : Front: L C R, Side: L R, LFE
Sampling rate                    : 48.0 KHz
Bit depth                        : 16 bits
Stream size                      : 394 MiB (9%)
Language                         : Russian
Text #1
ID                               : 3
Format                           : UTF-8
Codec ID                         : S_TEXT/UTF8
Codec ID/Info                    : UTF-8 Plain Text
Language                         : Russian
Text #2
ID                               : 4
Format                           : UTF-8
Codec ID                         : S_TEXT/UTF8
Codec ID/Info                    : UTF-8 Plain Text
Menu
00:00:00.000                     : en:Chapter 01
00:05:00.000                     : en:Chapter 02
00:10:00.000                     : en:Chapter 03
00:15:00.000                     : en:Chapter 04
00:20:00.000                     : en:Chapter 05
00:25:00.000                     : en:Chapter 06
00:30:00.000                     : en:Chapter 07
00:35:00.000                     : en:Chapter 08
00:40:00.000                     : en:Chapter 09
00:45:00.000                     : en:Chapter 10
00:50:00.000                     : en:Chapter 11
00:55:00.000                     : en:Chapter 12
01:00:00.000                     : en:Chapter 13
01:05:00.000                     : en:Chapter 14
01:10:00.000                     : en:Chapter 15
01:15:00.000                     : en:Chapter 16
01:20:00.000                     : en:Chapter 17
01:25:00.000                     : en:Chapter 18
01:30:00.000                     : en:Chapter 19
01:35:00.000                     : en:Chapter 20
01:40:00.000                     : en:Chapter 21
01:45:00.000                     : en:Chapter 22
01:50:00.000                     : en:Chapter 23
01:55:00.000                     : en:Chapter 24
02:00:00.000                     : en:Chapter 25
02:05:00.000                     : en:Chapter 26
02:10:00.000                     : en:Chapter 27
02:15:00.000                     : en:Chapter 28
02:20:00.000                     : en:Chapter 29

Знаете ли Вы, что...

» Премьера фильма вызвала массовую критику властей ЮАР, которым пришлось оправдываться перед международным сообществом по обвинениям в преступлениях перед человеком. Официальные лица африканской страны косвенно признали факты нарушений гражданских прав населения, однако, подчеркнули, что все это в далеком прошлом, а доля нелегальных алмазов на мировом рынке не превышает одного процента. Исполнителям главных ролей, также, было предложено лично посетить предприятия по добыче алмазов, и убедиться в соблюдении всех международных законов.


Скриншоты

     
     

_________________
Человек – это канат, натянутый между животным и сверхчеловеком, – канат над пропастью.
В человеке ценно то, что он мост, а не цель. Фридрих Ницше
Other forum [Profile] [PM]
Display posts from previous:    
Reply to topic

The time now is: Today 05:17

All times are GMT + 3 Hours



You cannot post new topics in this forum
You cannot reply to topics in this forum
You cannot edit your posts in this forum
You cannot delete your posts in this forum
You cannot vote in polls in this forum
You cannot attach files in this forum
You cannot download files in this forum