Today is a free download without charge Download

Боевой конь / War Horse (Стивен Спилберг/Steven Spielberg) [2011 г., драма, военный, история, BDRip720p]

Reply to topic
 
Author
Message

sassad ®

Gender:

Longevity: 10 years

Posts: 1214

Location: Галич

Торрент-статистика

Post 18-Apr-2012 21:46

[Quote]

Боевой конь / War Horse-- Год выпуска: 2011
Страна: США
Жанр: драма, военный, история
Продолжительность: 146 мин. / 02:26
Перевод: Профессиональный(дублированный)-Режиссер: Стивен Спилберг
Продюссер: Кэтлин Кеннеди, Стивен Спилберг, Ревель Гест
Сценарий: Ли Холл, Ричард Кёртис, Майкл Морпурго
Бюджет: $66 000 000
Премьера в мире: 4 декабря 2011
PG-13 - Детям до 13 лет просмотр не желателен
7.20 (35 287)

В ролях: Джереми Ирвин, Том Хиддлстон, Питер Муллан, Дэвид Тьюлис, Эмили Уотсон, Нильс Ареструп, Бенедикт Камбербэтч, Селин Бакенс, Тоби Кеббелл, Патрик Кеннеди-Описание: История невероятной дружбы мальчика Альберта и коня Джоуи.Когда начинается Первая мировая, и Джоуи отправляют вместе с кавалерийским полком на поля сражений Франции, Альберт, несмотря на слишком юный для военной службы возраст, все равно уходит на фронт, чтобы найти и спасти друга.-Качество: BDRip720p
Формат: MKV
Видео кодек: H.26x
Аудио кодек: AC3
Видео: 4881 kb/s, 1280x534
Аудио: Russian / Ukrainian: AC3, 384 kb/s (6 ch) / English: DTS, 1510 kb/s (6 ch)

-

M.I

Код:
Complete name : Boevoj.Konj.2011.D.BDRip.720p.IRONCLUB.mkv
Format : Matroska
Format version : Version 2
File size : 7.33 GiB
Duration : 2h 26mn
Overall bit rate : 7 160 Kbps
Movie name : War Horse (2011) .....:::IRONCLUB:::.....
Encoded date : UTC 2012-04-18 13:45:07
Writing application : mkvmerge v4.9.1 ('Ich will') сборка от Jul 11 2011 23:53:15
Writing library : libebml v1.2.1 + libmatroska v1.1.1
Video
ID : 1
Format : AVC
Format/Info : Advanced Video Codec
Format profile : [email protected]
Format settings, CABAC : Yes
Format settings, ReFrames : 12 frames
Codec ID : V_MPEG4/ISO/AVC
Duration : 2h 26mn
Bit rate : 4 881 Kbps
Width : 1 280 pixels
Height : 534 pixels
Display aspect ratio : 2.40:1
Frame rate : 23.976 fps
Color space : YUV
Chroma subsampling : 4:2:0
Bit depth : 8 bits
Scan type : Progressive
Bits/(Pixel*Frame) : 0.298
Stream size : 4.86 GiB (66%)
Title : War Horse (2011) .....:::IRONCLUB:::.....
Writing library : x264 core 122 r2184 5c85e0a
Encoding settings : cabac=1 / ref=12 / deblock=1:-3:-3 / analyse=0x3:0x113 / me=tesa / subme=11 / psy=1 / psy_rd=1.09:0.01 / mixed_ref=1 / me_range=32 / chroma_me=1 / trellis=2 / 8x8dct=1 / cqm=0 / deadzone=21,11 / fast_pskip=0 / chroma_qp_offset=-3 / threads=12 / sliced_threads=0 / nr=0 / decimate=1 / interlaced=0 / bluray_compat=0 / constrained_intra=0 / bframes=6 / b_pyramid=2 / b_adapt=2 / b_bias=0 / direct=3 / weightb=1 / open_gop=0 / weightp=2 / keyint=240 / keyint_min=23 / scenecut=40 / intra_refresh=0 / rc_lookahead=80 / rc=2pass / mbtree=1 / bitrate=4881 / ratetol=1.0 / qcomp=0.70 / qpmin=0 / qpmax=69 / qpstep=4 / cplxblur=20.0 / qblur=0.5 / vbv_maxrate=40000 / vbv_bufsize=40000 / nal_hrd=none / ip_ratio=1.40 / aq=1:0.90 / zones=198430,210985,b=0.1
Language : English
Default : Yes
Forced : Yes
Audio #1
ID : 2
Format : AC-3
Format/Info : Audio Coding 3
Mode extension : CM (complete main)
Codec ID : A_AC3
Duration : 2h 26mn
Bit rate mode : Constant
Bit rate : 384 Kbps
Channel(s) : 6 channels
Channel positions : Front: L C R, Side: L R, LFE
Sampling rate : 48.0 KHz
Bit depth : 16 bits
Compression mode : Lossy
Stream size : 403 MiB (5%)
Title : DD 5.1 @ 384 kbps - Dub, R5
Language : Russian
Default : Yes
Forced : Yes
Audio #2
ID : 3
Format : AC-3
Format/Info : Audio Coding 3
Mode extension : CM (complete main)
Codec ID : A_AC3
Duration : 2h 26mn
Bit rate mode : Constant
Bit rate : 384 Kbps
Channel(s) : 6 channels
Channel positions : Front: L C R, Side: L R, LFE
Sampling rate : 48.0 KHz
Bit depth : 16 bits
Compression mode : Lossy
Stream size : 403 MiB (5%)
Title : DD 5.1 @ 384 kbps - Dub, R5
Language : Ukrainian
Default : No
Forced : No
Audio #3
ID : 4
Format : DTS
Format/Info : Digital Theater Systems
Codec ID : A_DTS
Duration : 2h 26mn
Bit rate mode : Constant
Bit rate : 1 510 Kbps
Channel(s) : 6 channels
Channel positions : Front: L C R, Side: L R, LFE
Sampling rate : 48.0 KHz
Bit depth : 24 bits
Compression mode : Lossy
Stream size : 1.55 GiB (21%)
Title : DTS 5.1 @ 1536 kbps
Language : English
Default : No
Forced : No
Text #1
ID : 5
Format : UTF-8
Codec ID : S_TEXT/UTF8
Codec ID/Info : UTF-8 Plain Text
Language : Russian
Default : No
Forced : No
Text #2
ID : 6
Format : UTF-8
Codec ID : S_TEXT/UTF8
Codec ID/Info : UTF-8 Plain Text
Language : Ukrainian
Default : No
Forced : No
Text #3
ID : 7
Format : UTF-8
Codec ID : S_TEXT/UTF8
Codec ID/Info : UTF-8 Plain Text
Language : English
Default : No
Forced : No
Menu
00:00:00.000 : en:Chapter 01
00:04:31.104 : en:Chapter 02
00:09:31.320 : en:Chapter 03
00:13:57.002 : en:Chapter 04
00:17:45.230 : en:Chapter 05
00:22:29.097 : en:Chapter 06
00:29:16.963 : en:Chapter 07
00:34:17.180 : en:Chapter 08
00:37:49.934 : en:Chapter 09
00:41:30.196 : en:Chapter 10
00:47:19.002 : en:Chapter 11
00:51:48.814 : en:Chapter 12
00:56:03.151 : en:Chapter 13
01:01:19.175 : en:Chapter 14
01:04:04.048 : en:Chapter 15
01:05:51.030 : en:Chapter 16
01:14:04.565 : en:Chapter 17
01:18:01.009 : en:Chapter 18
01:25:34.379 : en:Chapter 19
01:29:48.007 : en:Chapter 20
01:35:29.682 : en:Chapter 21
01:45:23.275 : en:Chapter 22
01:51:06.659 : en:Chapter 23
02:00:06.157 : en:Chapter 24
02:07:38.275 : en:Chapter 25
02:15:12.270 : en:Chapter 26
02:18:10.949 : en:Chapter 27
-

Скриншоты

           

_________________
Other forum [Profile] [PM]
Similar theme
Forum Topic Author Torrent Replies Last Post
./templates/default/images/folder_dl.gif RTS (стратегии в реальном времени) Warlords: Battlecry \ Варлорды: Боевой клич (2000) (Strategic Simulations Inc.) [RUS|ENG] [L] Starck
1 | 0

0 | 2337

3

2013-07-08 10:08
Starck Latest
./templates/default/images/folder_dl.gif Техническая и научно-популярная литература МО СССР. Главное управление боевой подготовки сухопутных войск - Преодоление препятствий и ускоренное передвижение [1983, DjVu, RUS] Omen
1 | 0

0 | 631

0

2015-08-02 18:02
Omen Latest
Display posts from previous:    
Reply to topic

The time now is: Today 09:57

All times are GMT + 3 Hours



You cannot post new topics in this forum
You cannot reply to topics in this forum
You cannot edit your posts in this forum
You cannot delete your posts in this forum
You cannot vote in polls in this forum
You cannot attach files in this forum
You cannot download files in this forum