Today is a free download without charge Download

Милый друг / Bel Ami (Деклан Доннеллан, Ник Ормерод / Declan Donnellan, Nick Ormerod) [2012, Франция, Великобритания, Италия, драма, DVD5] R5 «Парадиз Медиа»

Reply to topic
 
Author
Message

Koralina ®

Longevity: 9 years 7 months

Posts: 994

Location: Lithuania

Торрент-статистика

Post 18-Apr-2012 08:56

[Quote]

Милый друг / Bel Ami«Соблазн. Обольщение. Страсть.» Страна: Франция, Великобритания, Италия
Студия: 19 Entertainment, Protagonist Pictures, Rai Cinema, Redwave Films
Жанр: драма
Год выпуска: 2012
Мировая премьера: 17 февраля 2012
Российская премьера: 29 марта 2012, «UPI»
Дата выхода DVD: 24 апреля 2012, «Парадиз Медиа»
Дата выхода Blu-Ray: 24 апреля 2012, «Парадиз Медиа»
Продолжительность: 01:38:14
Перевод: Профессиональный (дублированный) [Лицензия]
Cубтитры: нет
Режиссер: Деклан Доннеллан, Ник Ормерод / Declan Donnellan, Nick Ormerod
В ролях: Роберт Паттинсон, Кристина Риччи, Ума Турман, Кристин Скотт Томас, Наталия Тена, Колм Мини, Холли Грэйнджер, Филип Гленистер, Пип Торренс, Джеймс Лэнс
Описание: Жоржа влекут деньги, секс и власть. Обольстительная внешность и железные нервы карточного игрока, обворожительные манеры и когти хищника — и Париж, город порока и страсти, лежит у его ног…

Качество: DVD5 R5
Формат: DVD-Video
Видео кодек: MPEG2
Аудио кодек: AC3
Видео: PAL 16:9 (720x576(0.529)) MPEG Video, 25,000 кадр/сек, 5484 Кбит/сек
Аудио: Russian (Dolby AC3, 6 ch) 448 Кбит/сек, 48,0 КГц

DVDInfo

Title:
Size: 4.35 Gb ( 4 557 468 KBytes ) - DVD-5
Enabled regions: 1, 2, 3, 4, 5, 6, 7, 8
VTS_01 :
Play Length: 00:00:05
Video: PAL 4:3 (720x576) VBR
VTS_02 :
Play Length: 00:00:16
Video: PAL 16:9 (720x576) VBR, Auto Letterboxed
Audio:
Not specified (Dolby AC3, 2 ch)
VTS_03 :
Play Length: 00:00:07
Video: PAL 16:9 (720x576) VBR, Auto Letterboxed
Audio:
Not specified (Dolby AC3, 2 ch)
VTS_04 :
Play Length: 00:00:16
Video: PAL 16:9 (720x576) VBR, Auto Letterboxed
Audio:
Not specified (Dolby AC3, 2 ch)
VTS_05 :
Play Length: 01:38:14
Video: PAL 16:9 (720x576) VBR, Auto Letterboxed
Audio:
Russian (Dolby AC3, 6 ch)
Menu Video:
PAL 16:9 (720x576) VBR
Auto Pan&Scan, Auto Letterboxed
Menu Subtitles:
Not specified
Menu English Language Unit :
Root Menu

MediaInfo

Общее
Полное имя : J:\Новинки 2012\Milyj.drug.2012.DVD5\VIDEO_TS\VTS_05_1.VOB
Формат : MPEG-PS
Размер файла : 1024 Мбайт
Продолжительность : 23 м.
Режим общего битрейта : Переменный
Общий поток : 6053 Кбит/сек
Видео
Идентификатор : 224 (0xE0)
Формат : MPEG Video
Версия формата : Version 2
Профиль формата : [email protected]
Параметр BVOP формата : Да
Параметр матрицы формата : По умолчанию
Параметр GOP формата : M=3, N=12
Продолжительность : 23 м.
Вид битрейта : Переменный
Битрейт : 5484 Кбит/сек
Максимальный битрейт : 8000 Кбит/сек
Ширина : 720 пикселей
Высота : 576 пикселей
Соотношение сторон : 16:9
Частота кадров : 25,000 кадров/сек
Стандарт вещания : PAL
Цветовое пространство : YUV
Субдискретизация насыщенности : 4:2:0
Битовая глубина : 8 бит
Тип развёртки : Прогрессивная
Метод сжатия : С потерями
Бит/(Пиксели*Кадры) : 0.529
Размер потока : 928 Мбайт (91%)
Аудио
Идентификатор : 189 (0xBD)-128 (0x80)
Формат : AC-3
Формат/Информация : Audio Coding 3
Расширение режима : CM (complete main)
Режим смешивания : DVD-Video
Продолжительность : 23 м.
Вид битрейта : Постоянный
Битрейт : 448 Кбит/сек
Каналы : 6 каналов
Расположение каналов : Front: L C R, Side: L R, LFE
Частота : 48,0 КГц
Битовая глубина : 16 бит
Метод сжатия : С потерями
Размер потока : 75,8 Мбайт (7%)

Скриншоты меню

   

Скриншоты фильма

               

_________________
Other forum [Profile] [PM]
Display posts from previous:    
Reply to topic

The time now is: Today 22:50

All times are GMT + 3 Hours



You cannot post new topics in this forum
You cannot reply to topics in this forum
You cannot edit your posts in this forum
You cannot delete your posts in this forum
You cannot vote in polls in this forum
You cannot attach files in this forum
You cannot download files in this forum