Today is a free download without charge Download

Утомленные солнцем (Никита Михалков) [1994, Россия, Франция, драма, военный, история, WEB-DL 1080p]

Reply to topic
 
Author
Message

Omen ®

Longevity: 8 years 10 months

Posts: 181086

Торрент-статистика

Post 07-May-2015 00:42

[Quote]

Утомленные солнцем
Страна: Россия, Франция
Студия: Caméra One, Canal+ [fr], Студия Тритэ
Жанр: драма, военный, история
Год выпуска: 1994
Продолжительность: 2:21:55
Перевод: Не требуется
Cубтитры: нет
Оригинальная аудиодорожка: русский
Режиссер: Никита Михалков
В ролях: Олег Меньшиков
Никита Михалков
Ингеборга Дапкунайте
Надежда Михалкова
Андре Умански
Вячеслав Тихонов
Светлана Крючкова
Владимир Ильин
Алла Казанская
Нина Архипова
Описание: Солнечный летний день 1936 года. Молодая страна, полная энтузиазма, празднует 4-ю годовщину сталинского дирижаблестроения. Легендарный комдив Котов и его большая шумная семья отдыхают на даче. В старом доме собралась тьма народу: жена-красавица, непоседа-дочь, тесть — известный русский дирижер, родственники и друзья, домработницы и соседи.
Веселье бьет через край, и мысль, что что-то в жизни может измениться, покажется всем абсурдом. Они все будут счастливы вечно! И никто, даже мудрый Котов, не хочет верить в неизбежное. В то, что этот солнечный день кончится — и не повторится уже никогда.
Сэмпл
Тип релиза: WEB-DL 1080p
Контейнер: MKV
Видео: AVC/H.264, 1912x1072 (16:9), 4947 Кбит/сек, 25.000 fps
Аудио: AC3, 48000 Hz, 384 Кбит/сек, 5.1 ch

MediaInfo

General
Complete name : D:\Утомленные солнцем (1080p HD).mkv
Format : Matroska
Format version : Version 2
File size : 5.39 GiB
Duration : 2h 21mn
Overall bit rate : 5 439 Kbps
Writing application : mkvmerge v5.8.0 ('No Sleep / Pillow') built on Sep 2 2012 15:37:04
Writing library : libebml v1.2.3 + libmatroska v1.3.0
Video
ID : 1
Format : AVC
Format/Info : Advanced Video Codec
Format profile : [email protected]
Format settings, CABAC : Yes
Format settings, ReFrames : 4 frames
Muxing mode : Header stripping
Codec ID : V_MPEG4/ISO/AVC
Duration : 2h 21mn
Bit rate : 4 947 Kbps
Width : 1 912 pixels
Height : 1 072 pixels
Display aspect ratio : 16:9
Frame rate mode : Constant
Frame rate : 25.000 fps
Color space : YUV
Chroma subsampling : 4:2:0
Bit depth : 8 bits
Scan type : Progressive
Bits/(Pixel*Frame) : 0.097
Stream size : 4.90 GiB (91%)
Default : Yes
Forced : No
Color range : Limited
Color primaries : BT.709
Transfer characteristics : BT.709
Matrix coefficients : BT.709
Audio
ID : 2
Format : AC-3
Format/Info : Audio Coding 3
Mode extension : CM (complete main)
Format settings, Endianness : Big
Muxing mode : Header stripping
Codec ID : A_AC3
Duration : 2h 21mn
Bit rate mode : Constant
Bit rate : 384 Kbps
Channel(s) : 6 channels
Channel positions : Front: L C R, Side: L R, LFE
Sampling rate : 48.0 KHz
Compression mode : Lossy
Stream size : 390 MiB (7%)
Language : Russian
Default : Yes
Forced : No

Скриншоты

Other forum [Profile] [PM]
Display posts from previous:    
Reply to topic

The time now is: Today 17:55

All times are GMT + 3 Hours



You cannot post new topics in this forum
You cannot reply to topics in this forum
You cannot edit your posts in this forum
You cannot delete your posts in this forum
You cannot vote in polls in this forum
You cannot attach files in this forum
You cannot download files in this forum