Today is a free download without charge Download

Стальные Двери / Iron Doors (Стивен Мануэль / Stephen Manuel) [2010, Германия, фэнтези, триллер, детектив, DVD9] R5 «Мистерия Звука»

Reply to topic
 
Author
Message

Koralina ®

Longevity: 9 years 7 months

Posts: 994

Location: Lithuania

Торрент-статистика

Post 16-Apr-2012 14:19

[Quote]

Стальные Двери / Iron Doors / 2D и 3D версии«No food. No water. No way out.» Страна: Германия
Студия: Fullfeedback Productions, Water Bear Productions
Жанр: фэнтези, триллер, детектив
Год выпуска: 2010
Мировая премьера: 24 апреля 2010
Дата выхода DVD: 5 апреля 2012, «Мистерия Звука»
Продолжительность: 01:17:10
Перевод: Профессиональный (одноголосый закадровый) [Лицензия]
Cубтитры: нет
Режиссер: Стивен Мануэль / Stephen Manuel
В ролях: Эксел Ведекинд, Рингано Нуони
Описание: Молодой человек просыпается в комнате без окон, но с огромной железной дверью и железным шкафом, закрытым на замок. На все его крики о помощи и стуки в дверь никто не отзывается. Что ему делать — неизвестно. Понятно только одно: отсчет часов до его смерти уже запущен, ведь без еды и без воды долго ему не протянуть. На второй день он обнаруживает ключ от шкафа, спрятанный в плафоне лампы освещения.
В шкафу обнаруживается зубило молоток и автоген. Запертый в комнате он начинает долбить дыру в бетонной стене. За стеной обнаруживается такая же точно комната с такой же огромной железной дверью. Разница только одна — в комнате стоит гроб, а в нем лежит живая африканская девушка, ни слова не понимающая по-английски. Вдвоем они продолжают игру на выживание.
Семпл 2D, Семпл 3D
,
Качество: DVD9 R5
Формат: DVD-Video
Видео кодек: MPEG2
Аудио кодек: AC3
Видео: PAL 16:9 (720x576(0.524)) MPEG Video, 25,000 кадр/сек, 5434 Кбит/сек
Аудио: Russian (Dolby AC3, 6 ch) 448 Кбит/сек, 48,0 КГц

DVDInfo

Title:
Size: 7.09 Gb ( 7 433 138 KBytes ) - DVD-9
Enabled regions: 1, 2, 3, 4, 5, 6, 7, 8
VTS_01 :
Play Length: 00:00:16
Video: PAL 16:9 (720x576) VBR, Auto Letterboxed
Audio:
Russian (Dolby AC3, 2 ch)
VTS_02 :
Play Length: 01:17:10
Video: PAL 16:9 (720x576) VBR, Auto Letterboxed
Audio:
Russian (Dolby AC3, 6 ch)
VTS_03 :
Play Length: 01:17:10
Video: PAL 16:9 (720x576) VBR, Auto Letterboxed
Audio:
Russian (Dolby AC3, 6 ch)
Menu Video:
PAL 16:9 (720x576) VBR
Auto Letterboxed
Menu Audio:
Not specified (Dolby AC3, 2 ch)
Menu Subtitles:
Not specified
Menu Russian Language Unit :
Root Menu
Chapter (PTT) Menu

MediaInfo

Общее
Полное имя : J:\Новинки 2012\Stal'nye.Dveri.2010.DVD9\VIDEO_TS\VTS_02_1.VOB
Формат : MPEG-PS
Размер файла : 1024 Мбайт
Продолжительность : 23 м.
Режим общего битрейта : Переменный
Общий поток : 6002 Кбит/сек
Видео
Идентификатор : 224 (0xE0)
Формат : MPEG Video
Версия формата : Version 2
Профиль формата : [email protected]
Параметр BVOP формата : Да
Параметр матрицы формата : Выборочная
Продолжительность : 23 м.
Вид битрейта : Переменный
Битрейт : 5434 Кбит/сек
Максимальный битрейт : 8500 Кбит/сек
Ширина : 720 пикселей
Высота : 576 пикселей
Соотношение сторон : 16:9
Частота кадров : 25,000 кадров/сек
Стандарт вещания : PAL
Цветовое пространство : YUV
Субдискретизация насыщенности : 4:2:0
Битовая глубина : 8 бит
Тип развёртки : Прогрессивная
Метод сжатия : С потерями
Бит/(Пиксели*Кадры) : 0.524
Размер потока : 927 Мбайт (91%)
Аудио
Идентификатор : 189 (0xBD)-128 (0x80)
Формат : AC-3
Формат/Информация : Audio Coding 3
Расширение режима : CM (complete main)
Режим смешивания : DVD-Video
Продолжительность : 23 м.
Вид битрейта : Постоянный
Битрейт : 448 Кбит/сек
Каналы : 6 каналов
Расположение каналов : Front: L C R, Side: L R, LFE
Частота : 48,0 КГц
Битовая глубина : 16 бит
Метод сжатия : С потерями
Размер потока : 76,4 Мбайт (7%)

Скриншоты меню

     

Скриншоты фильма 2D

               

Скриншоты фильма 3D

               

_________________
Other forum [Profile] [PM]
Similar theme
Forum Topic Author Torrent Replies Last Post
./templates/default/images/folder_dl.gif Техническая и научно-популярная литература А.А.Мельников и др. | Микропроцессоры, микроконтроллеры и однокристальные микропрограммируемые устройства. Часть 1 и 2 [2008] [DJVU] UndegraundMen
1 | 0

0 | 720

1

2013-05-17 00:04
UndegraundMen Latest
Display posts from previous:    
Reply to topic

The time now is: Today 10:43

All times are GMT + 3 Hours



You cannot post new topics in this forum
You cannot reply to topics in this forum
You cannot edit your posts in this forum
You cannot delete your posts in this forum
You cannot vote in polls in this forum
You cannot attach files in this forum
You cannot download files in this forum