Today is a free download without charge Download

Остров сокровищ / Treasure Island (Стив Бэррон / Steve Barron) [2011, Великобритания, Ирландия, приключения, DVD9] R5 «Вольга»

Reply to topic
 
Author
Message

Koralina ®

Longevity: 9 years 7 months

Posts: 994

Location: Lithuania

Торрент-статистика

Post 16-Apr-2012 13:41

[Quote]

Остров сокровищ / Treasure Island
Русское название: Остров сокровищ
Оригинальное название: Treasure Island
Страна: Великобритания, Ирландия
Студия: Kindle Entertainment, MNG Films, Parallel Film Productions Ltd.
Жанр: приключения
Год выпуска: 2011
Мировая премьера: 1 января 2012
Дата выхода DVD: 12 апреля 2012, «Вольга»
Продолжительность: 01:26:06 + 01:29:00
Перевод: Профессиональный (многоголосый закадровый) [Лицензия]
Cубтитры: русские
Оригинальная аудиодорожка: английский
Режиссер: Стив Бэррон / Steve Barron
Продюсер: Лори Борг, Алан Молони, Мелани Стоукс
Сценарий: Стюарт Харкорт
В ролях: Эдди Иззард, Тоби Регбо, Руперт Пенри-Джонс, Дэниэл Мейс, Филип Гленистер, Дональд Сазерленд, Элайджа Вуд, Ширли Хендерсон, Нина Сосанья, Джофф Белл
Описание: Двухсерийная драма повествует о Джиме Хокинсе, который неожиданно вливается в мир пиратства, когда обнаруживает карту сокровищ капитана Флинта. Но Долговязый Джон Сильвер не остановится ни перед чем, чтобы прибрать всё золото к своим рукам…
Рейтинг IMDB:
Рейтинг Kinopoisk:
Качество: DVD9 R5
Формат: DVD-Video
Видео кодек: MPEG2
Аудио кодек: AC3
Видео: PAL 16:9 (720x576(0.424)) MPEG Video, 25,000 кадр/сек, 4397 Кбит/сек
Аудио #1: Russian (Dolby AC3, 6 ch) 256 Кбит/сек, 48,0 КГц
Аудио #2: English (Dolby AC3, 5 ch) 256 Кбит/сек, 48,0 КГц / 192 Кбит/сек, 48,0 КГц [2 часть]

DVDInfo

Title:
Size: 7.15 Gb ( 7 500 208 KBytes ) - DVD-9
Enabled regions: 1, 2, 3, 4, 5, 6, 7, 8
VTS_01 :
Play Length: 00:00:10
Video: PAL 16:9 (720x576) VBR, Auto Pan&Scan, Auto Letterboxed
VTS_02 :
Play Length: 00:00:06
Video: PAL 16:9 (720x576) VBR, Auto Pan&Scan, Auto Letterboxed
VTS_03 :
Play Length: 01:26:06
Video: PAL 16:9 (720x576) VBR, Auto Pan&Scan, Auto Letterboxed
Audio:
Not specified (Dolby AC3, 5 ch)
Not specified (Dolby AC3, 6 ch)
Subtitles:
Not specified
Not specified
VTS_04 :
Play Length: 00:02:34
Video: PAL 16:9 (720x576) VBR, Auto Pan&Scan, Auto Letterboxed
Audio:
Not specified (Dolby AC3, 2 ch)
Not specified (Dolby AC3, 2 ch)
Subtitles:
Not specified
Not specified
VTS_05 :
Play Length: 00:02:06
Video: PAL 16:9 (720x576) VBR, Auto Pan&Scan, Auto Letterboxed
Audio:
Not specified (Dolby AC3, 6 ch)
Not specified (Dolby AC3, 6 ch)
Subtitles:
Not specified
Not specified
VTS_06 :
Play Length: 01:29:00
Video: PAL 16:9 (720x576) VBR, Auto Pan&Scan, Auto Letterboxed
Audio:
Not specified (Dolby AC3, 5 ch)
Not specified (Dolby AC3, 2 ch)
Subtitles:
Not specified
Not specified

MediaInfo

Общее
Полное имя : J:\Новинки 2012\Ostrov.Sokrovish.2012.DVD9\VIDEO_TS\VTS_03_1.VOB
Формат : MPEG-PS
Размер файла : 1024 Мбайт
Продолжительность : 28 м.
Режим общего битрейта : Переменный
Общий поток : 5009 Кбит/сек
Видео
Идентификатор : 224 (0xE0)
Формат : MPEG Video
Версия формата : Version 2
Профиль формата : [email protected]
Параметр BVOP формата : Да
Параметр матрицы формата : Выборочная
Параметр GOP формата : M=3, N=15
Продолжительность : 28 м.
Вид битрейта : Переменный
Битрейт : 4397 Кбит/сек
Максимальный битрейт : 9000 Кбит/сек
Ширина : 720 пикселей
Высота : 576 пикселей
Соотношение сторон : 16:9
Частота кадров : 25,000 кадров/сек
Стандарт вещания : PAL
Цветовое пространство : YUV
Субдискретизация насыщенности : 4:2:0
Битовая глубина : 8 бит
Тип развёртки : Чересстрочная
Порядок развёртки : Верхнее поле первое
Метод сжатия : С потерями
Бит/(Пиксели*Кадры) : 0.424
Размер потока : 899 Мбайт (88%)
Аудио #1
Идентификатор : 189 (0xBD)-128 (0x80)
Формат : AC-3
Формат/Информация : Audio Coding 3
Расширение режима : CM (complete main)
Режим смешивания : DVD-Video
Продолжительность : 28 м.
Вид битрейта : Постоянный
Битрейт : 256 Кбит/сек
Каналы : 5 каналов
Расположение каналов : Front: L C R, Side: L R
Частота : 48,0 КГц
Битовая глубина : 16 бит
Метод сжатия : С потерями
Размер потока : 52,3 Мбайт (5%)
Аудио #2
Идентификатор : 189 (0xBD)-129 (0x81)
Формат : AC-3
Формат/Информация : Audio Coding 3
Расширение режима : CM (complete main)
Режим смешивания : DVD-Video
Продолжительность : 28 м.
Вид битрейта : Постоянный
Битрейт : 256 Кбит/сек
Каналы : 6 каналов
Расположение каналов : Front: L C R, Side: L R, LFE
Частота : 48,0 КГц
Битовая глубина : 16 бит
Метод сжатия : С потерями
Размер потока : 52,3 Мбайт (5%)
Текст
Идентификатор : 189 (0xBD)-33 (0x21)
Формат : RLE
Формат/Информация : Run-length encoding
Режим смешивания : DVD-Video
Продолжительность : 28 м.
Задержка видео : 920 мс.

Скриншоты меню

     

Скриншоты фильма

                   

_________________
Other forum [Profile] [PM]
Similar theme
Forum Topic Author Torrent Replies Last Post
./templates/default/images/folder_dl.gif * Техническая и научно-популярная литература С.Ф.Петренко | Пьезоэлектрический двигатель в приборостроении (2002) [PDF] UndegraundMen
1 | 0

0 | 700

0

2013-10-06 17:02
UndegraundMen Latest
./templates/default/images/folder_dl.gif Техническая и научно-популярная литература А.О.Лацис | Как построить и использовать суперкомпьютер (2003) [PDF] Omen
1 | 0

0 | 475

1

2014-12-27 13:15
Omen Latest
./templates/default/images/folder_dl.gif Техническая и научно-популярная литература Г. Тяпичев | Как построить трансивер (2005) [DJVU] NarDok
1 | 0

0 | 703

3

2015-05-17 20:34
NarDok Latest
Display posts from previous:    
Reply to topic

The time now is: Today 13:43

All times are GMT + 3 Hours



You cannot post new topics in this forum
You cannot reply to topics in this forum
You cannot edit your posts in this forum
You cannot delete your posts in this forum
You cannot vote in polls in this forum
You cannot attach files in this forum
You cannot download files in this forum