Today is a free download without charge Download

Шаман / Сезон: 1 Серии: 1 - 16 из 16 (Максим Кубринский) [2011, Россия, драма, криминал, 2xDVD9] R5 Original Rus

Reply to topic
 
Author
Message

Koralina ®

Longevity: 10 years

Posts: 994

Location: Lithuania

Торрент-статистика

Post 14-Apr-2012 18:02

[Quote]

Шаман
Русское название: Шаман
Оригинальное название: Shaman
Страна: Россия
Студия: Группа компаний Гамма
Жанр: драма, криминал
Год выпуска: 2011
Российская премьера: 19 декабря 2011
Дата выхода DVD: 29 марта 2012, «Компания WWW.RECORDS»
Продолжительность: 736 мин.
Перевод: Оригинал [Лицензия]
Cубтитры: нет
Оригинальная аудиодорожка: русский
Продюсер: Алексей Моисеев, Давид Дишдишян, Светлана Слитюк
Сценарий: Михаил Шульман
Режиссер: Максим Кубринский
В ролях: Владимир Скворцов, Игорь Ботвин, Ян Цапник, Сергей Мардарь, Кирилл Щербина, Светлана Щедрина, Виталий Коваленко, Владимир Карпов, Евгений Катаев, Виталий Куклин, Анна Пескова, Анатолий Хропов, Алексей Лысенко, Константин Фисенко, Алексей Фокин, Михаил Сидаш, Тимофей Будкевич, Валерий Ошомков, Роман Павлушев, Юлия Сафонова, Алена Старостина, Сергей Бадюк, Дарья Циберкина
Описание: После двух лет, проведенных в СИЗО, на свободу выходит следователь СКП Иван Шаманов. У него есть сын, коллеги, азарт и работа, а также скверный характер и отличное чувство юмора. Он любвеобилен — и красотки отвечают ему взаимностью. Его главный враг — Корнеев, человек, из-за которого Шаман и попал за решетку. Шаман слишком крутой в своей профессии — и это не может оставить равнодушными тех, с кем он борется: преступники его боятся, запугивают и пытаются убрать. Но Шаман точно знает, что сила — в правде. А потому всегда на шаг опережает злодеев. Но кто победит в итоге?
Рейтинг IMDB:
Рейтинг Kinopoisk:
Релиз группы:
Качество: 2xDVD9 R5
Формат: DVD-Video
Видео кодек: MPEG2
Аудио кодек: AC3
Видео: PAL 4:3 (720x576(2.990)) MPEG Video, 25,000 кадр/сек, 8000 Кбит/сек
Аудио: Russian (Dolby AC3, 2 ch) 256 Кбит/сек, 48,0 КГц

DVDInfo DVD-1

Title:
Size: 7.50 Gb ( 7 869 404 KBytes ) - DVD-9
Enabled regions: 1, 2, 3, 4, 5, 6, 7, 8
VTS_01 :
Play Length: 06:10:40
Video: PAL 4:3 (720x576) VBR
Audio:
English (Dolby AC3, 2 ch)
Menu Video:
PAL 4:3 (720x576) VBR
Menu Audio:
Not specified (Dolby AC3, 2 ch)
Menu Subtitles:
Not specified
Menu English Language Unit :
Root Menu

DVDInfo DVD-2

Title:
Size: 7.56 Gb ( 7 925 632 KBytes ) - DVD-9
Enabled regions: 1, 2, 3, 4, 5, 6, 7, 8
VTS_01 :
Play Length: 06:10:55
Video: PAL 4:3 (720x576) VBR
Audio:
English (Dolby AC3, 2 ch)
Menu Video:
PAL 4:3 (720x576) VBR
Menu Audio:
Not specified (Dolby AC3, 2 ch)
Menu Subtitles:
Not specified
Menu English Language Unit :
Root Menu

MediaInfo

Общее
Полное имя : J:\Новинки 2012\Shaman.2011.2хDVD9\DVD-1\VIDEO_TS\VTS_01_3.VOB
Формат : MPEG-PS
Размер файла : 1024 Мбайт
Продолжительность : 4 м. 29 с.
Режим общего битрейта : Переменный
Общий поток : 31,9 Мбит/сек
Видео
Идентификатор : 224 (0xE0)
Формат : MPEG Video
Версия формата : Version 2
Профиль формата : [email protected]
Параметр BVOP формата : Да
Параметр матрицы формата : Выборочная
Продолжительность : 4 м. 29 с.
Вид битрейта : Переменный
Битрейт : 31,0 Мбит/сек
Максимальный битрейт : 8000 Кбит/сек
Ширина : 720 пикселей
Высота : 576 пикселей
Соотношение сторон : 4:3
Частота кадров : 25,000 кадров/сек
Стандарт вещания : PAL
Цветовое пространство : YUV
Субдискретизация насыщенности : 4:2:0
Битовая глубина : 8 бит
Тип развёртки : Прогрессивная
Метод сжатия : С потерями
Бит/(Пиксели*Кадры) : 2.990
Размер потока : 995 Мбайт (97%)
Аудио
Идентификатор : 189 (0xBD)-128 (0x80)
Формат : AC-3
Формат/Информация : Audio Coding 3
Расширение режима : CM (complete main)
Режим смешивания : DVD-Video
Продолжительность : 4 м. 29 с.
Вид битрейта : Постоянный
Битрейт : 256 Кбит/сек
Каналы : 2 канала
Расположение каналов : Front: L R
Частота : 48,0 КГц
Битовая глубина : 16 бит
Метод сжатия : С потерями
Задержка видео : -224 мс.
Размер потока : 8,22 Мбайт (1%)

Скриншоты меню

       

Скриншоты фильма

                   

_________________


Last edited by Koralina on 2012-04-14 22:44; edited 1 time in total
Other forum [Profile] [PM]
Display posts from previous:    
Reply to topic

The time now is: Today 14:46

All times are GMT + 3 Hours



You cannot post new topics in this forum
You cannot reply to topics in this forum
You cannot edit your posts in this forum
You cannot delete your posts in this forum
You cannot vote in polls in this forum
You cannot attach files in this forum
You cannot download files in this forum