Today is a free download without charge Download

Эффект бабочки ( Режиссёрская версия) / The Butterfly Effect (Director's Cut) [ Эрик Бресс, Дж. Макки Грубер (2004) фантастика, триллер, 1080p]

Reply to topic
 
Author
Message

Delia ®

Gender:

Longevity: 10 years

Posts: 1821

Торрент-статистика

Post 14-Apr-2012 14:28

[Quote]

Эффект бабочки / The Butterfly Effect«Изменишь одно, изменится все»--
Год выпуска: 2004
Страна: США , Канада
Жанр: фантастика, триллер, ...
Продолжительность: 01:59:37
Перевод: Профессиональный (дублированный со вставками Tycoon'а на непереведённые места)
Субтитры: Russian , English (srt)
Режиссер: Эрик Бресс, Дж. Макки Грубер
Сценарий: Дж. Макки Грубер, Эрик Бресс
Продюсер: Крис Бендер, Энтони Рулен, Дж.С. Спинк, ...
Оператор: Мэтью Ф. Леонетти
Композитор: Майкл Саби
Художник: Дуглас Хиггинс, Шеннон Гроувер, Джереми Стэнбридж, ...
Монтаж: Питер Амундсон- В ролях: Эштон Катчер (Ashton Kutcher), Эми Смарт (Amy Smart), Мелора Уолтерс (Melora Walters), Элден Хенсон (Elden Henson), Уильям Ли Скотт (William Lee Scott), Джон Патрик Амедори (John Patrick Amedori), Ирен Горовая (Irene Gorovaia), Кевин Шмидт (Kevin Schmidt), Джесси Джеймс (Jesse James), Логан Лерман (Logan Lerman), Сара Виддоуз (Sarah Widdows), Джэйк Кезэ (Jake Kaese), Камерон Брайт (Cameron Bright), Эрик Столц (Eric Stoltz), Каллум Кит Ренни (Callum Keith Rennie), Лорена Гэйл (Lorena Gale), Натаниель Дево (Nathaniel DeVeaux), Джон Тирни (John Tierney), Кендалл Кросс (Kendall Cross), Тед Френд (Ted Friend)
Описание: Мальчик Эван перенял от своего отца-психопата, ныне запертого в доме для умалишённых, странную болезнь — он не помнит некоторых эпизодов своей жизни, причем в эти моменты происходили довольно странные, а то и ужасные, события. Возмужав и поступив в колледж, Эван делает удивительное открытие. Читая дневники, которые он писал в детстве по совету врача, Эван может возвращаться в детство и своими действиями изменять будущее.-Рейтинг MPAA: -- --Качество: BDRip
Формат: MKV
Видео кодек: H.264 (AVC)
Аудио кодеk: AC3
Видео: 1920x1080 (16:9), 23.976 fps, AVC, 6 719 Kbps
Аудио: AC3, 448 Kbps, 48.0 KHz, 6 ch RUS Dub
Аудио #2: AC3, 320 Kbps, 48.0 KHz, 6 ch ENG

Отдельно на народ.ру:
Профессиональный (многоголосый, закадровый) (Tycoon)

МедиаИнфо

Код:
General
Complete name                    : Butterfly Effect (Directors Cut).2004.BDRip1080p-F.HD.mkv
Format                           : Matroska
File size                        : 6.25 GiB
Duration                         : 1h 59mn
Overall bit rate                 : 7 480 Kbps
Encoded date                     : UTC 2012-04-14 08:43:06
Writing application              : mkvmerge v5.5.0 ('Healer') built on Apr  6 2012 21:43:24
Writing library                  : libebml v1.2.3 + libmatroska v1.3.0
Video
ID                               : 1
Format                           : AVC
Format/Info                      : Advanced Video Codec
Format profile                   : [email protected]
Format settings, CABAC           : Yes
Format settings, ReFrames        : 4 frames
Muxing mode                      : Container [email protected]
Codec ID                         : V_MPEG4/ISO/AVC
Duration                         : 1h 59mn
Bit rate                         : 6 719 Kbps
Width                            : 1 920 pixels
Height                           : 1 080 pixels
Display aspect ratio             : 16:9
Frame rate                       : 23.976 fps
Color space                      : YUV
Chroma subsampling               : 4:2:0
Bit depth                        : 8 bits
Scan type                        : Progressive
Bits/(Pixel*Frame)               : 0.135
Stream size                      : 5.48 GiB (88%)
Writing library                  : x264 core 122 r2184 5c85e0a
Encoding settings                : cabac=1 / ref=4 / deblock=1:-3:-3 / analyse=0x3:0x113 / me=umh / subme=10 / psy=1 / psy_rd=1.05:0.15 / mixed_ref=1 / me_range=32 / chroma_me=1 / trellis=2 / 8x8dct=1 / cqm=0 / deadzone=21,11 / fast_pskip=0 / chroma_qp_offset=-5 / threads=6 / sliced_threads=0 / nr=0 / decimate=1 / interlaced=0 / bluray_compat=0 / constrained_intra=0 / bframes=8 / b_pyramid=2 / b_adapt=2 / b_bias=0 / direct=1 / weightb=1 / open_gop=0 / weightp=2 / keyint=240 / keyint_min=23 / scenecut=40 / intra_refresh=0 / rc=2pass / mbtree=0 / bitrate=6719 / ratetol=1.0 / qcomp=0.70 / qpmin=0 / qpmax=69 / qpstep=4 / cplxblur=20.0 / qblur=0.5 / ip_ratio=1.40 / pb_ratio=1.30 / aq=2:0.90
Color primaries                  : BT.709-5, BT.1361, IEC 61966-2-4, SMPTE RP177
Transfer characteristics         : BT.709-5, BT.1361
Matrix coefficients              : BT.709-5, BT.1361, IEC 61966-2-4 709, SMPTE RP177
Audio #1
ID                               : 2
Format                           : AC-3
Format/Info                      : Audio Coding 3
Mode extension                   : CM (complete main)
Codec ID                         : A_AC3
Duration                         : 1h 59mn
Bit rate mode                    : Constant
Bit rate                         : 448 Kbps
Channel(s)                       : 6 channels
Channel positions                : Front: L C R, Side: L R, LFE
Sampling rate                    : 48.0 KHz
Bit depth                        : 16 bits
Stream size                      : 383 MiB (6%)
Language                         : Russian
Audio #2
ID                               : 3
Format                           : AC-3
Format/Info                      : Audio Coding 3
Mode extension                   : CM (complete main)
Codec ID                         : A_AC3
Duration                         : 1h 59mn
Bit rate mode                    : Constant
Bit rate                         : 320 Kbps
Channel(s)                       : 6 channels
Channel positions                : Front: L C R, Side: L R, LFE
Sampling rate                    : 48.0 KHz
Bit depth                        : 16 bits
Stream size                      : 274 MiB (4%)
Text #1
ID                               : 4
Format                           : UTF-8
Codec ID                         : S_TEXT/UTF8
Codec ID/Info                    : UTF-8 Plain Text
Language                         : Russian
Text #2
ID                               : 5
Format                           : UTF-8
Codec ID                         : S_TEXT/UTF8
Codec ID/Info                    : UTF-8 Plain Text

Знаете ли Вы, что...

» Обложки дневников Эвана очень похожи на обложки дневников Джона Доу, героя триллера «Семь».
» Роль Кейли вполне могла достаться Али Лартер, участнице первых двух картин «Пункт назначения».
» Cценарием к картине зачитывались многие, однако желающих воплотить прочитанное на экране было не так много. Ситуация изменилась лишь после того, как сценарий попал в руки Эштона Катчера. Актер был настолько впечатлен прочитанным, что согласился стать одним из продюсеров и выделить часть собственных денег на запуск проекта.
» В ранних версиях сценария главного героя звали несколько иначе — Крис Треборн. Чуть позднее имя главного героя изменилось на Эвана. Если переставить первую букву фамилии в конец имени, то в переводе на русский язык данная словесная конструкция (Event Reborn) будет звучать как «Перерождающий события».
» Актер Элдон Хенсон, исполняющий роль Ленни, вначале принял участие в съемке более поздних по хронометражу сцен, в которых его персонаж женится на Кейли и заботится об инвалиде Эване. Это было сделано для того, чтобы Элдон успел набрать порядка 20 фунтов веса для съемки других сцен, в ходе которых его герой сходит с ума. Для того, чтобы набрать необходимый лишний вес, актеру понадобился всего лишь месяц.
» В рамках подготовки к исполняемой роли Эштон Катчер уделил немало времени изучению психологии, душевных и психических травм, а также теории хаоса.
» Прокат фильма несколько раз откладывался. Его собирались выпустить еще в апреле 2003 года, затем в сентябре того же года, а премьера состоялась лишь 22 января 2004-го.
» Съемки картины начались 3-го июня 2002 года в Ванкувере при бюджете 13 миллионов долларов, а закончились 31-го июля того же года.
» Название картины было взято из названия одной из глав так называемой «Теории хаоса», в которой рассматривается вопрос «Сможет ли взмах крыльев бабочки в Бразилии вызвать торнадо в Техасе?».
» Фильм посвящен памяти Аманды Мозес.
» В качестве намека на Рэя Брэдбери можно отметить вымпел «Университет Брэдбери» на стене в комнате Эвана.
» На роль Эвана пробовались Джошуа Джексон и Шон Уильям Скотт.
» Одна из картин, висящих над кроватью Эвана в его комнате общежития, - репродукция «Сна» (1937) Сальвадора Дали.


Скриншоты

     
     

_________________
Человек – это канат, натянутый между животным и сверхчеловеком, – канат над пропастью.
В человеке ценно то, что он мост, а не цель. Фридрих Ницше
Other forum [Profile] [PM]
Display posts from previous:    
Reply to topic

The time now is: Today 11:11

All times are GMT + 3 Hours



You cannot post new topics in this forum
You cannot reply to topics in this forum
You cannot edit your posts in this forum
You cannot delete your posts in this forum
You cannot vote in polls in this forum
You cannot attach files in this forum
You cannot download files in this forum