Today is a free download without charge Download

Мистерия-Буфф (Давид Черкасский) [1969, мультфильм, политическая сатира, экранизация, WEBRip]

Reply to topic
 
Author
Message

Omen ®

Longevity: 7 years 11 months

Posts: 181087

Торрент-статистика

Post 30-Apr-2015 15:44

[Quote]

Мистерия-Буфф
Страна: СССР
Жанр: мультфильм, политическая сатира, экранизация
Продолжительность: 00:47:18
Год выпуска: 1969
Перевод: Не требуется
Русские субтитры: нет
Режиссёр: Давид Черкасский
В ролях: А. Чернова, В. Беляев, В. Краснощёков, В. Федотов, Ю. Медведев, В. Пасынков
Фильм озвучили: артисты Московского Театра на Таганке
Описание: Экранизация одноимённой сатирической пьесы Владимира Маяковского. История становления советского государства показана посредством буффонадной мультипликации и конферанса в исполнении клоунов-мимов.
Доп. информация: Третья режиссёрская работа Давида Черкасского. Фильм выходил лишь в ограниченный республиканский прокат, а затем был положен "на полку".
Качество: WEBRip
Формат: AVI
Видео: 2092 kbps, 688х464 (3:2), 23.976 fps, MPEG-4 Visual (XviD)
Аудио: 192 kbps, 48.0 kHz, 16 bits, 2 channels, AC-3
Субтитры: отсутствуют

Подробные технические данные

GeneralComplete name : Мистерия-Буфф (1969).aviFormat : AVIFormat/Info : Audio Video InterleaveFile size : 554 MiBDuration : 47mn 18sOverall bit rate : 1 637 KbpsWriting application : VirtualDubMod 1.5.10.3 | www.virtualdub-fr.org || (build 2550/release)Writing library : VirtualDubMod build 2550/release
VideoID : 0Format : MPEG-4 VisualFormat profile : Advanced [email protected] settings, BVOP : 2Format settings, QPel : NoFormat settings, GMC : No warppointsFormat settings, Matrix : Default (H.263)Codec ID : XVIDCodec ID/Hint : XviDDuration : 47mn 18sBit rate : 1 499 KbpsWidth : 640 pixelsHeight : 480 pixelsDisplay aspect ratio : 4:3Frame rate : 25.000 fpsColor space : YUVChroma subsampling : 4:2:0Bit depth : 8 bitsScan type : ProgressiveCompression mode : LossyBits/(Pixel*Frame) : 0.195Stream size : 507 MiB (92%)Writing library : XviD 73
AudioID : 1Format : MPEG AudioFormat version : Version 1Format profile : Layer 3Mode : Joint stereoMode extension : MS StereoCodec ID : 55Codec ID/Hint : MP3Duration : 47mn 18sBit rate mode : ConstantBit rate : 128 KbpsChannel(s) : 2 channelsSampling rate : 44.1 KHzCompression mode : LossyStream size : 43.3 MiB (8%)Alignment : Split accross interleavesInterleave, duration : 40 ms (1.00 video frame)Interleave, preload duration : 500 ms

Скриншоты

Other forum [Profile] [PM]
Display posts from previous:    
Reply to topic

The time now is: Today 04:36

All times are GMT + 3 Hours



You cannot post new topics in this forum
You cannot reply to topics in this forum
You cannot edit your posts in this forum
You cannot delete your posts in this forum
You cannot vote in polls in this forum
You cannot attach files in this forum
You cannot download files in this forum