Сегодня идет свободное скачивание без начисления Download

Драгоценный подарок [Александр Роу] (1956) (Комедия, DVDRip)

Ответить на тему
 
Автор
Сообщение

Nugeiro ®

Пол:

Стаж: 7 лет 5 месяцев

Сообщений: 2002

Откуда: Украина, Шостка

Торрент-статистика

Пост 14-Апр-2012 07:34

[Цитировать]

Драгоценный подарок Русское название: Драгоценный подарок
Год выпуска: 1956
Жанр: Комедия
Описание фильма:
Легендарная комедия от мастеров жанра. Накануне своего рождения москвич Карп Трофимович отправился на рыбалку. Желающие ему угодить домочадцы и друзья решают "помочь" любителю рыбной ловли, для чего специально с Амура доставляется огромная живая щука... И его племянник во время конкурса рыболовов цепляет дяде на крючок огромную щуку.

Режиссер: Александр Роу
Актеры: Владимир Володин, Мария Миронова, Михаил Кузнецов, Рина Зеленая, Георгий Милляр, Александр Лебедев, Вера Орлова, Николай Горлов, Александр Тимонтаев, Галина Степанова, Лев Фричинский, Иван Рыжов, Татул Дилакян, Аркадий Цинман, Александр Жуков, Михаил Щербаков, Эммануил Геллер
Продолжительность: 01:13:18

Видеокодек: DivX 5
Битрейт видео: ~1950 kbps avg
Размер кадра: 688x512
Качество видео: DVDRip
Аудиокодек: AC3 2.0 Dolby Digital
Битрейт аудио: 192.00 kbps

MI

Код:
Общее
Полное имя                       : C:\Users\1\Downloads\dragocenniy_podarok_[спам].avi
Формат                           : AVI
Формат/Информация                : Audio Video Interleave
Размер файла                     : 1,10 Гбайт
Продолжительность                : 1 ч. 13 м.
Общий поток                      : 2153 Кбит/сек
Программа кодирования            : VirtualDubModRus 1.5.10.2 (build 2542/release)
Библиотека кодирования           : VirtualDubMod build 2542/release
Видео
Идентификатор                    : 0
Формат                           : MPEG-4 Visual
Параметр BVOP формата            : 1
Параметр QPel формата            : Нет
Параметр GMC формата             : Без точки перехода
Параметр матрицы формата         : Default (H.263)
Режим смешивания                 : Сжатый битовый поток
Идентификатор кодека             : DX50
Идентификатор кодека/Подсказка   : DivX 5
Продолжительность                : 1 ч. 13 м.
Битрейт                          : 1951 Кбит/сек
Ширина                           : 688 пикселей
Высота                           : 512 пикселей
Соотношение сторон               : 4:3
Частота кадров                   : 25,000 кадров/сек
Цветовое пространство            : YUV
Субдискретизация насыщенности    : 4:2:0
Битовая глубина                  : 8 бит
Тип развёртки                    : Прогрессивная
Метод сжатия                     : С потерями
Бит/(Пиксели*Кадры)              : 0.222
Размер потока                    : 1023 Мбайт (91%)
Библиотека кодирования           : DivX 6.8.3-6.8.4 (UTC 2008-06-07)
Аудио
Идентификатор                    : 1
Формат                           : AC-3
Формат/Информация                : Audio Coding 3
Расширение режима                : CM (complete main)
Идентификатор кодека             : 2000
Продолжительность                : 1 ч. 13 м.
Вид битрейта                     : Постоянный
Битрейт                          : 192 Кбит/сек
Каналы                           : 2 канала
Расположение каналов             : Front: L R
Частота                          : 48,0 КГц
Битовая глубина                  : 16 бит
Метод сжатия                     : С потерями
Размер потока                    : 101 Мбайт (9%)
Выравнивание                     : Соединение по промежуткам
Продолжительность промежутка     : 40  мс. (1,00 видеокадр)
Время предзагрузки промежутка    : 512  мс.
Скриншоты:            

_________________


Последний раз редактировалось: Nugeiro (2012-04-14 22:46), всего редактировалось 1 раз
Вне форума [Профиль] [ЛС]

fat2010

Стаж: 6 лет 5 месяцев

Сообщений: 20

Торрент-статистика

Пост 07-Янв-2013 19:48 (спустя 8 месяцев 23 дня)

[Цитировать]

Спасибо за фильм детства!
Вне форума [Профиль] [ЛС]
Показать сообщения:    
Ответить на тему

Текущее время: Сегодня 06:05

Часовой пояс: GMT + 3



Вы не можете начинать темы
Вы не можете отвечать на сообщения
Вы не можете редактировать свои сообщения
Вы не можете удалять свои сообщения
Вы не можете голосовать в опросах
Вы не можете прикреплять файлы к сообщениям
Вы не можете скачивать файлы