Today is a free download without charge Download

Ч/Б (Евгений Шелякин) [2015, Россия, Комедия, криминал, фантастика, WEB-DL 1080p] + Original Rus

Reply to topic
 
Author
Message

Omen ®

Longevity: 8 years 10 months

Posts: 181086

Торрент-статистика

Post 29-Apr-2015 03:12

[Quote]

Ч/Б (Евгений Шелякин) [2015, Россия, Комедия, криминал, фантастика, WEB-DL 1080p]
Страна: Россия
Жанр: Комедия, криминал, фантастика
Год выпуска: 2015
Продолжительность: 01:29:04
Перевод: Не требуется
Cубтитры: нет
Оригинальная аудиодорожка: русский
Режиссер: Евгений Шелякин
В ролях: Алексей Чадов, Мераб Нинидзе, Сергей Маковецкий, Гурам Баблишвили, Бесо Гатаев, Кахи Кавсадзе, Екатерина Редникова, Мария Андреева, Мария Звонарёва, Андрей Руденский.
Описание: Наши дни. Опасного авторитета-интеллектуала Алхана одновременно решают ограбить обманутый им Ярослав и мелкий жулик Нурик. По случайности во время их столкновения Нурик погибает, но возвращается в мир с миссией: быть ангелом-хранителем Ярослава. Вот только Ярослав при этом страдает «аллергией на Кавказ». Мистическим образом скованные вместе, эти двое вынуждены искать общий язык и спасаться от жаждущего расправы Алхана с его подручными.
Сэмпл: http://multi-up.com/1045607
Тип релиза: WEB-DL 1080p
Контейнер: MKV
Видео: MPEG4 Video (H264) 1920 x 800p, ~ 4346 kbps, 25 fps, 0.113 bit/pixel
Аудио: AC-3, 6 канала, 48,0 КГц, ~384 kbps iTunes

MediaInfo

Общее
Уникальный идентификатор : 230959391485905147911368528423095978727 (0xADC1292A30998B7DAD87F3A4E8014AE7)
Полное имя : D:\Ч. Б\ЧБ (Евгений Шелякин) [2015, Россия, Комедия, криминал, фантастика, WEB-DL 1080p].mkv
Формат : Matroska
Версия формата : Version 2
Размер файла : 3,00 Гбайт
Продолжительность : 1 ч. 29 м.
Общий поток : 4826 Кбит/сек
Название фильма : 4B.WEB.1080p.DP
Дата кодирования : UTC 2015-04-25 19:06:02
Программа кодирования : mkvmerge v5.6.0 ('Kenya Kane') built on May 27 2012 16:44:04
Библиотека кодирования : libebml v1.2.3 + libmatroska v1.3.0
_STATISTICS_WRITING_APP : mkvmerge v7.8.0 ('River Man') 64bit built on Mar 27 2015 16:31:37
_STATISTICS_WRITING_DATE_UTC : 2015-04-24 12:00:17
_STATISTICS_TAGS : BPS DURATION NUMBER_OF_FRAMES NUMBER_OF_BYTES
DURATION : 01:29:04.544000000
NUMBER_OF_FRAMES : 167017
NUMBER_OF_BYTES : 256538112
Видео
Идентификатор : 1
Формат : AVC
Формат/Информация : Advanced Video Codec
Профиль формата : [email protected]
Параметр CABAC формата : Да
Параметр ReFrames формата : 5 кадров
Идентификатор кодека : V_MPEG4/ISO/AVC
Продолжительность : 1 ч. 29 м.
Битрейт : 4346 Кбит/сек
Ширина : 1920 пикселей
Высота : 800 пикселей
Соотношение сторон : 2,40:1
Режим частоты кадров : Постоянный
Частота кадров : 25,000 кадров/сек
Цветовое пространство : YUV
Субдискретизация насыщенности : 4:2:0
Битовая глубина : 8 бит
Тип развёртки : Прогрессивная
Бит/(Пиксели*Кадры) : 0.113
Размер потока : 2,70 Гбайт (90%)
Заголовок : WEBDL
Язык : Russian
Default : Да
Forced : Нет
Основные цвета : BT.709
Характеристики трансфера : BT.709
Коэффициенты матрицы : BT.709
colour_range : Limited
Аудио
Идентификатор : 2
Формат : AC-3
Формат/Информация : Audio Coding 3
Расширение режима : CM (complete main)
Параметр Endianness формата : Big
Режим смешивания : Header stripping
Идентификатор кодека : A_AC3
Продолжительность : 1 ч. 29 м.
Вид битрейта : Постоянный
Битрейт : 384 Кбит/сек
Каналы : 6 каналов
Расположение каналов : Front: L C R, Side: L R, LFE
Частота : 48,0 КГц
Битовая глубина : 16 бит
Метод сжатия : С потерями
Размер потока : 245 Мбайт (8%)
Заголовок : [ORIGINAL] DD 5.1 @ 384 kbps
Язык : Russian
Default : Да
Forced : Нет
Меню
00:00:00.000 : en:1
00:01:34.000 : en:2
00:04:55.000 : en:3
00:08:54.000 : en:4
00:13:33.000 : en:5
00:18:07.000 : en:6
00:22:26.000 : en:7
00:28:06.000 : en:8
00:33:28.000 : en:9
00:37:56.000 : en:10
00:44:28.000 : en:11
00:49:31.000 : en:12
00:55:41.000 : en:13
00:59:56.000 : en:14
01:06:03.000 : en:15
01:09:47.000 : en:16
01:15:40.000 : en:17
01:21:19.000 : en:18

Скриншоты

Other forum [Profile] [PM]
Display posts from previous:    
Reply to topic

The time now is: Today 15:18

All times are GMT + 3 Hours



You cannot post new topics in this forum
You cannot reply to topics in this forum
You cannot edit your posts in this forum
You cannot delete your posts in this forum
You cannot vote in polls in this forum
You cannot attach files in this forum
You cannot download files in this forum