Today is a free download without charge Download

Операция «Ы» и другие приключения Шурика (Леонид Гайдай) [1965, СССР, комедия, BDRip 720p] + Sub Rus

Reply to topic
 
Author
Message

Omen ®

Longevity: 8 years 10 months

Posts: 181086

Торрент-статистика

Post 28-Apr-2015 15:42

[Quote]

Операция «Ы» и другие приключения Шурика
Страна: СССР
Жанр: комедия
Год выпуска: 1965
Продолжительность: 01:34:34
Cубтитры: русские
Оригинальная аудиодорожка: русский
Режиссер: Леонид Гайдай
В ролях: Александр Демьяненко, Наталья Селезнёва, Алексей Смирнов, Юрий Никулин, Евгений Моргунов, Георгий Вицин, Михаил Пуговкин, Виктор Павлов, Владимир Басов, Рина Зеленая...
Описание: Фильм состоит из трех новелл, объединенных фигурой главного героя Шурика, попадающего в самые невероятные ситуации. В «Напарнике» Шурик сражается с хулиганом Верзилой; в «Наваждении» весьма оригинальным способом готовится к экзамену; в «Операции «Ы» предотвращает «ограбление века», на которое идет знаменитая тройка — Балбес, Трус и Бывалый.
Сэмпл: http://multi-up.com/1045820
Тип релиза: BDRip 720p Исходник
Контейнер: MKV
Видео: 948x720 (4:3), 23.976 fps, AVC, ~4500 Kbps, 0.275 bits/pixel
Аудио 1: 48.0 KHz, AC3, 1 ch, 192 Kbps
Аудио 2: 48.0 KHz, DTS, 6 ch, 1510 Kbps

MediaInfo

General
Unique ID : 208009717722672254341641479180765390064 (0x9C7D36E37AC669839DF42A87974864F0)
Complete name : C:\Операция Ы и другие приключения Шурика.mkv
Format : Matroska
Format version : Version 4 / Version 2
File size : 4.10 GiB
Duration : 1h 34mn
Overall bit rate : 6 203 Kbps
Encoded date : UTC 2015-04-27 13:06:26
Writing application : mkvmerge v7.7.0 ('Six Voices') 64bit built on Feb 28 2015 23:39:33
Writing library : libebml v1.3.1 + libmatroska v1.4.2
DURATION : 01:29:28.827000000
NUMBER_OF_FRAMES : 374
NUMBER_OF_BYTES : 27559
_STATISTICS_WRITING_APP : mkvmerge v7.7.0 ('Six Voices') 64bit built on Feb 28 2015 23:39:33
_STATISTICS_WRITING_DATE_UT : 2015-04-27 13:06:26
_STATISTICS_TAGS : BPS DURATION NUMBER_OF_FRAMES NUMBER_OF_BYTES
Video
ID : 1
Format : AVC
Format/Info : Advanced Video Codec
Format profile : [email protected]
Format settings, CABAC : Yes
Format settings, ReFrames : 9 frames
Codec ID : V_MPEG4/ISO/AVC
Duration : 1h 34mn
Bit rate : 4 500 Kbps
Width : 948 pixels
Height : 720 pixels
Display aspect ratio : 4:3
Frame rate mode : Constant
Frame rate : 23.976 fps
Color space : YUV
Chroma subsampling : 4:2:0
Bit depth : 8 bits
Scan type : Progressive
Bits/(Pixel*Frame) : 0.275
Stream size : 2.89 GiB (71%)
Writing library : x264 core 146 r2538 121396c
Encoding settings : cabac=1 / ref=9 / deblock=1:-1:-1 / analyse=0x3:0x133 / me=umh / subme=10 / psy=1 / psy_rd=1.00:0.10 / mixed_ref=1 / me_range=32 / chroma_me=1 / trellis=2 / 8x8dct=1 / cqm=0 / deadzone=21,11 / fast_pskip=0 / chroma_qp_offset=-3 / threads=6 / lookahead_threads=1 / sliced_threads=0 / nr=0 / decimate=1 / interlaced=0 / bluray_compat=0 / constrained_intra=0 / bframes=10 / b_pyramid=2 / b_adapt=2 / b_bias=0 / direct=3 / weightb=1 / open_gop=0 / weightp=2 / keyint=250 / keyint_min=23 / scenecut=40 / intra_refresh=0 / rc_lookahead=50 / rc=2pass / mbtree=1 / bitrate=4500 / ratetol=1.0 / qcomp=0.60 / qpmin=0 / qpmax=69 / qpstep=4 / cplxblur=20.0 / qblur=0.5 / ip_ratio=1.40 / aq=1:1.00
Language : Russian
Default : Yes
Forced : No
Audio #1
ID : 2
Format : AC-3
Format/Info : Audio Coding 3
Mode extension : CM (complete main)
Format settings, Endianness : Big
Codec ID : A_AC3
Duration : 1h 34mn
Bit rate mode : Constant
Bit rate : 192 Kbps
Channel(s) : 1 channel
Channel positions : Front: C
Sampling rate : 48.0 KHz
Bit depth : 16 bits
Compression mode : Lossy
Stream size : 130 MiB (3%)
Language : Russian
Default : Yes
Forced : No
Audio #2
ID : 3
Format : DTS
Format/Info : Digital Theater Systems
Mode : 16
Format settings, Endianness : Big
Codec ID : A_DTS
Duration : 1h 34mn
Bit rate mode : Constant
Bit rate : 1 509 Kbps
Channel(s) : 6 channels
Channel positions : Front: L C R, Side: L R, LFE
Sampling rate : 48.0 KHz
Bit depth : 24 bits
Compression mode : Lossy
Stream size : 1 021 MiB (24%)
Language : Russian
Default : No
Forced : No
Text
ID : 4
Format : UTF-8
Codec ID : S_TEXT/UTF8
Codec ID/Info : UTF-8 Plain Text
Language : Russian
Default : No
Forced : No
Menu
00:00:00.000 : :Chapter 01
00:03:46.935 : :Chapter 02
00:08:52.615 : :Chapter 03
00:13:58.629 : :Chapter 04
00:17:53.322 : :Chapter 05
00:25:03.502 : :Chapter 06
00:31:35.893 : :Chapter 07
00:35:16.948 : :Chapter 08
00:41:43.584 : :Chapter 09
00:45:58.630 : :Chapter 10
00:52:43.160 : :Chapter 11
00:57:14.055 : :Chapter 12
01:03:11.037 : :Chapter 13
01:06:33.489 : :Chapter 14
01:13:24.608 : :Chapter 15
01:15:08.212 : :Chapter 16
01:20:51.513 : :Chapter 17
01:29:02.003 : :Chapter 18
01:34:28.079 : :Chapter 19

Сравнение

http:///*spam*//forum/viewtopic.php?t=4445760
nabby_3 | Source | Dreven


Скриншоты

Other forum [Profile] [PM]
Display posts from previous:    
Reply to topic

The time now is: Today 22:11

All times are GMT + 3 Hours



You cannot post new topics in this forum
You cannot reply to topics in this forum
You cannot edit your posts in this forum
You cannot delete your posts in this forum
You cannot vote in polls in this forum
You cannot attach files in this forum
You cannot download files in this forum