Today is a free download without charge Download

Чародей равновесия. Тайна Сухаревой башни (Сергей Серегин) [2015 г., мультфильм, фэнтези, история, WEB-DLRip] [iTunes]

Reply to topic
 
Author
Message

Clavik ®

Gender:

Longevity: 7 years

Posts: 2496

Location: Украина

Торрент-статистика

Post 27-Apr-2015 15:53

[Quote]

-Чародей равновесия. Тайна Сухаревой башни-- Производство: мультфильм, фэнтези, история
Режиссер: Сергей Серегин
Жанр: мультфильм, фэнтези, история
Год выпуска: 2015 г.
Продолжительность: 01:13:24
Российская премьера: 26 марта 2015, «Каропрокат»
В ролях: Прохор Чеховской, Ольга Шорохова, Диомид Виноградов, Александр Тараньжин, Станислав Дужников, Вадим Демчог, Алла Санникова, Сергей Габриэлян, Алексей Емцов, Алексей Иващенко-Описание: Россия, конец 17 века. Царь Петр Первый издает указ о праздновании Нового года. Ко двору царя под видом ученого-механика приезжает Магистр темной магии, который стремится попасть в Волшебные Миры и вернуть свою магическую силу. Врата Волшебных миров находятся в Москве в Сухаревой башне. Их охраняет граф Яков Брюс — знаменитый сподвижник царя Петра, ученый, колдун и Чародей Равновесия. Ученик Брюса, подросток Петя, случайно узнает о коварных планах Магистра и спешит к Сухаревой башне, чтобы предупредить дочь Брюса Маргариту об опасности. Дети ссорятся и нечаянно разрывают старинный манускрипт, в котором заключена магическая сила Брюса. Для восстановления манускрипта дети отправляются в опасное приключение в Волшебные миры.-Сэмпл КиноПоиск
Качество видео: WEB-DLRip
Контейнер: AVI
Видео кодек: XviD
Аудио кодек: AC3
Видео: 720x400 (1.80:1), 25 fps, XviD build 50 ~1882 kbps avg, 0.26 bit/pixel
Аудио: 48 kHz, AC3 Dolby Digital, 3/2 (L,C,R,l,r) + LFE ch, ~384 kbps
Cубтитры: отсутствуют

Media Info

General
Complete name : W:\Char0dey.2015.O.WEB-DLRip.1400Mb.avi
Format : AVI
Format/Info : Audio Video Interleave
File size : 1.37 GiB
Duration : 1h 13mn
Overall bit rate : 2 666 Kbps
Writing application : VirtualDubMod 1.5.10.2 (build 2540/release)
Writing library : VirtualDubMod build 2540/release
Video
ID : 0
Format : MPEG-4 Visual
Format profile : Advanced [email protected]
Format settings, BVOP : Yes
Format settings, QPel : No
Format settings, GMC : No warppoints
Format settings, Matrix : Default (MPEG)
Codec ID : XVID
Codec ID/Hint : XviD
Duration : 1h 13mn
Bit rate : 1 884 Kbps
Width : 720 pixels
Height : 400 pixels
Display aspect ratio : 16:9
Frame rate : 25.000 fps
Color space : YUV
Chroma subsampling : 4:2:0
Bit depth : 8 bits
Scan type : Progressive
Bits/(Pixel*Frame) : 0.262
Stream size : 989 MiB (71%)
Writing library : XviD 1.2.1 (UTC 2008-12-04)
Audio #1
ID : 1
Format : AC-3
Format/Info : Audio Coding 3
Mode extension : CM (complete main)
Codec ID : 2000
Duration : 1h 13mn
Bit rate mode : Constant
Bit rate : 384 Kbps
Channel(s) : 6 channels
Channel positions : Front: L C R, Side: L R, LFE
Sampling rate : 48.0 KHz
Bit depth : 16 bits
Stream size : 202 MiB (14%)
Alignment : Split accross interleaves
Interleave, duration : 40 ms (1.00 video frame)
Interleave, preload duration : 500 ms
Audio #2
ID : 2
Format : AC-3
Format/Info : Audio Coding 3
Mode extension : CM (complete main)
Codec ID : 2000
Duration : 1h 13mn
Bit rate mode : Constant
Bit rate : 384 Kbps
Channel(s) : 6 channels
Channel positions : Front: L C R, Side: L R, LFE
Sampling rate : 48.0 KHz
Bit depth : 16 bits
Stream size : 202 MiB (14%)
Alignment : Split accross interleaves
Interleave, duration : 40 ms (1.00 video frame)
Interleave, preload duration : 500 ms

Скриншоты

       

_________________


Other forum [Profile] [PM]
Display posts from previous:    
Reply to topic

The time now is: Today 22:31

All times are GMT + 3 Hours



You cannot post new topics in this forum
You cannot reply to topics in this forum
You cannot edit your posts in this forum
You cannot delete your posts in this forum
You cannot vote in polls in this forum
You cannot attach files in this forum
You cannot download files in this forum