Today is a free download without charge Download

Испытательный срок (Игорь Нурисламов) [2014, Мелодрама, романтическая комедия, HDTV 1080i]

Reply to topic
 
Author
Message

Omen ®

Longevity: 8 years 10 months

Posts: 181086

Торрент-статистика

Post 27-Apr-2015 12:13

[Quote]

Испытательный срок
Год выпуска: 2014
Производство: Россия, Ланд Синема
Жанр: Мелодрама, романтическая комедия
Продолжительность: 01:36:02
Субтитры: нет
Режиссёр:Игорь Нурисламов
В ролях: Михаил Тарабукин, Поля Полякова, Роман Притула, Андрей Аксёнов, Артём Анчуков, Елена Мартыненко, Дмитрий Комков, Даниил Комков, Алексей Фокин, Егор Бакулин, Геша Меньшиков, Полина Красавина, Оксана Скакун, Алёна Кучкова, Сергей Уманов, Дмитрий Макеев, Виктор Выбриенко, Полина Воронова
Описание: Гражданский муж Ксюши проворовался и скрывается от правосудия и обманутых клиентов. Всё имущество описано и отобрано. Матери-одиночке позарез надо найти работу. Дайте ей только шанс и она перевернет мир! Но… ветрянка у двоих ее близнецов рушит все планы. Новая работа могла бы разом решить все проблемы. Но как быть, если начальство не переносит слов «больничный-дети» и ни за что не возьмет на работу мать двоих малышей? «Багаж» решено скрыть, а достоинства приукрасить. Ей бы только продержаться испытательный срок, который совпал с 21 днем карантина. На помощь отчаявшейся мамочке приходит жилец, инфантильный и безответственный разгильдяй.

Качество: HDTV 1080i
Контейнер: TS
Видео: MPEG4 Video (H264) 1920x1080, ~ 7 355 Кбит/сек, 25.00fps 0.142 bit/pixel
Аудио: MP2, 2 канала, 48,0 КГц, ~320 kbps
Сторонней рекламы нет!

MI

GeneralID : 1 (0x1)Complete name : Испытательный срок (2014)\Ispytatelniy.srok.2013.HDTV.1080i.tsFormat : MPEG-TSFile size : 5.42 GiBDuration : 1h 36mnOverall bit rate mode : VariableOverall bit rate : 8 078 Kbps
VideoID : 2741 (0xAB5)Menu ID : 1044 (0x414)Format : AVCFormat/Info : Advanced Video CodecFormat profile : [email protected] settings, CABAC : YesFormat settings, ReFrames : 4 framesCodec ID : 27Duration : 1h 36mnBit rate : 7 355 KbpsWidth : 1 920 pixelsHeight : 1 080 pixelsDisplay aspect ratio : 16:9Frame rate : 25.000 fpsColor space : YUVChroma subsampling : 4:2:0Bit depth : 8 bitsScan type : InterlacedScan order : Top Field FirstBits/(Pixel*Frame) : 0.142Stream size : 4.93 GiB (91%)Color primaries : BT.709Transfer characteristics : BT.709Matrix coefficients : BT.709
AudioID : 2742 (0xAB6)Menu ID : 1044 (0x414)Format : MPEG AudioFormat version : Version 1Format profile : Layer 2Codec ID : 3Duration : 1h 36mnBit rate mode : ConstantBit rate : 320 KbpsChannel count : 2 channelsSampling rate : 48.0 KHzCompression mode : LossyStream size : 220 MiB (4%)Language : Russian
Раздача группы:
Отдельное спасибо daboen за предоставление материала.

Скриншоты

Скриншот с названием фильма

Other forum [Profile] [PM]
Display posts from previous:    
Reply to topic

The time now is: Today 18:56

All times are GMT + 3 Hours



You cannot post new topics in this forum
You cannot reply to topics in this forum
You cannot edit your posts in this forum
You cannot delete your posts in this forum
You cannot vote in polls in this forum
You cannot attach files in this forum
You cannot download files in this forum