Today is a free download without charge Download

Сестричка, действуй 2: Опять за старое / Sister Act 2: Back in the Habit (Билл Дьюк / Bill Duke) [1993, США,комедия, музыка, 720p ]

Reply to topic
 
Author
Message

Delia ®

Gender:

Longevity: 11 years

Posts: 1821

Торрент-статистика

Post 13-Apr-2012 10:59

[Quote]

Сестричка, действуй 2 : Опять за старое / Sister Act 2: Back in the Habit--
Год выпуска: 1993
Страна: США
Жанр: комедия, музыка, ...
Продолжительность: 01:47:03
Перевод: Профессиональный (многоголосый закадровый)
Субтитры: Russian , English (srt)
Режиссер: Билл Дьюк
Сценарий: Джеймс Орр, Джим Крукшэнк, Джуди Энн Мэйсон, ...
Продюсер: Марио Искович, Лоуренс Марк, Кристофер Меледандри, ...
Оператор: Оливер Вуд
Композитор: Майлз Гудман, Мервин Уоррен
Художник: Джон ДеКуир мл., Луис М. Манн, Френсин Джеймисон-Танчук, ...
Монтаж: Джон Картер, Пемброук Дж. Херринг, Стюарт Х. Паппе- В ролях: Вупи Голдберг (Whoopi Goldberg), Кэти Нэджими (Kathy Najimy), Барнард Хьюз (Barnard Hughes), Мэри Уикс (Mary Wickes), Джеймс Коберн (James Coburn), Майкл Джитер (Michael Jeter), Уэнди Маккена (Wendy Makkena), Шерил Ли Ральф (Sheryl Lee Ralph), Роберт Пасторелли (Robert Pastorelli), Томас Готтшалк (Thomas Gottschalk), Мэгги Смит (Maggie Smith), Лорин Хилл (Lauryn Hill), Брэд Салливан (Brad Sullivan), Аланна Юбак (Alanna Ubach), Райан Тоби (Ryan Toby), Рон Джонсон (Ron Johnson), Дженнифер Лав Хьюитт (Jennifer Love Hewitt), Девин Камин (Devin Kamin), Christian Fitzharris, Таня Блонт (Tanya Blount)
Описание: Прогульщики и лоботрясы ни в какую не хотят учиться, и бедные учителя не находят себе места от их шуток и приколов. Их молитвы услышаны — неугомонная Долорес соглашается внедриться к ним под маской обычного учителя музыки. Бывшая подруга мафиози вспомнила о своих былых похождениях, и под рясой монахини в класс входит крутая «сестричка». Религиозные догмы снова дрогнули&3; в ритме рок-н-ролла.-Рейтинг MPAA: -- --Качество: BDRip
Формат: MKV
Видео кодек: H.264 (AVC)
Аудио кодеk: AC3
Видео: 1280x692 (1.850:1), 23.976 fps, AVC, 5 204 Kbps
Аудио: AC3, 320 Kbps, 48.0 KHz, 2 ch RUS MVO
Аудио #2:AC3, 320 Kbps, 48.0 KHz, 6 ch ENG

МедиаИнфо

Код:
General
Complete name                    : Sister Act 2(1993)BDRip720p0F.HD.mkv
Format                           : Matroska
File size                        : 4.37 GiB
Duration                         : 1h 47mn
Overall bit rate                 : 5 838 Kbps
Encoded date                     : UTC 2012-04-13 05:31:43
Writing application              : mkvmerge v5.5.0 ('Healer') built on Apr  6 2012 21:43:24
Writing library                  : libebml v1.2.3 + libmatroska v1.3.0
Video
ID                               : 1
Format                           : AVC
Format/Info                      : Advanced Video Codec
Format profile                   : [email protected]
Format settings, CABAC           : Yes
Format settings, ReFrames        : 9 frames
Muxing mode                      : Container [email protected]
Codec ID                         : V_MPEG4/ISO/AVC
Duration                         : 1h 47mn
Bit rate                         : 5 204 Kbps
Width                            : 1 280 pixels
Height                           : 692 pixels
Display aspect ratio             : 1.850
Frame rate                       : 23.976 fps
Color space                      : YUV
Chroma subsampling               : 4:2:0
Bit depth                        : 8 bits
Scan type                        : Progressive
Bits/(Pixel*Frame)               : 0.245
Stream size                      : 3.81 GiB (87%)
Writing library                  : x264 core 122 r2184 5c85e0a
Encoding settings                : cabac=1 / ref=9 / deblock=1:-3:-2 / analyse=0x3:0x133 / me=umh / subme=10 / psy=1 / psy_rd=0.95:0.00 / mixed_ref=1 / me_range=48 / chroma_me=1 / trellis=2 / 8x8dct=1 / cqm=0 / deadzone=21,11 / fast_pskip=0 / chroma_qp_offset=-2 / threads=6 / sliced_threads=0 / nr=0 / decimate=1 / interlaced=0 / bluray_compat=0 / constrained_intra=0 / bframes=7 / b_pyramid=2 / b_adapt=2 / b_bias=0 / direct=3 / weightb=1 / open_gop=0 / weightp=2 / keyint=240 / keyint_min=23 / scenecut=40 / intra_refresh=0 / rc=2pass / mbtree=0 / bitrate=5204 / ratetol=1.0 / qcomp=0.70 / qpmin=0 / qpmax=69 / qpstep=4 / cplxblur=20.0 / qblur=0.5 / ip_ratio=1.40 / pb_ratio=1.20 / aq=2:0.90
Color primaries                  : BT.709-5, BT.1361, IEC 61966-2-4, SMPTE RP177
Transfer characteristics         : BT.709-5, BT.1361
Matrix coefficients              : BT.709-5, BT.1361, IEC 61966-2-4 709, SMPTE RP177
Audio #1
ID                               : 2
Format                           : AC-3
Format/Info                      : Audio Coding 3
Mode extension                   : CM (complete main)
Codec ID                         : A_AC3
Duration                         : 1h 47mn
Bit rate mode                    : Constant
Bit rate                         : 320 Kbps
Channel(s)                       : 2 channels
Channel positions                : Front: L R
Sampling rate                    : 48.0 KHz
Bit depth                        : 16 bits
Stream size                      : 245 MiB (5%)
Language                         : Russian
Audio #2
ID                               : 3
Format                           : AC-3
Format/Info                      : Audio Coding 3
Mode extension                   : CM (complete main)
Codec ID                         : A_AC3
Duration                         : 1h 47mn
Bit rate mode                    : Constant
Bit rate                         : 320 Kbps
Channel(s)                       : 6 channels
Channel positions                : Front: L C R, Side: L R, LFE
Sampling rate                    : 48.0 KHz
Bit depth                        : 16 bits
Stream size                      : 245 MiB (5%)
Text #1
ID                               : 4
Format                           : UTF-8
Codec ID                         : S_TEXT/UTF8
Codec ID/Info                    : UTF-8 Plain Text
Language                         : Russian
Text #2
ID                               : 5
Format                           : UTF-8
Codec ID                         : S_TEXT/UTF8
Codec ID/Info                    : UTF-8 Plain Text
Menu
00:00:00.000                     : en:Chapter 01
00:08:30.009                     : en:Chapter 02
00:13:18.339                     : en:Chapter 03
00:15:30.638                     : en:Chapter 04
00:20:13.253                     : en:Chapter 05
00:28:14.776                     : en:Chapter 06
00:36:22.346                     : en:Chapter 07
00:42:47.773                     : en:Chapter 08
00:48:05.132                     : en:Chapter 09
00:52:36.736                     : en:Chapter 10
00:56:44.401                     : en:Chapter 11
01:01:21.427                     : en:Chapter 12
01:09:15.234                     : en:Chapter 13
01:13:39.998                     : en:Chapter 14
01:21:31.887                     : en:Chapter 15
01:31:21.851                     : en:Chapter 16
01:36:59.605                     : en:Chapter 17
01:41:36.924                     : en:Chapter 18
01:47:03.542                     : en:Chapter 19


Скриншоты

     
     

_________________
Человек – это канат, натянутый между животным и сверхчеловеком, – канат над пропастью.
В человеке ценно то, что он мост, а не цель. Фридрих Ницше
Other forum [Profile] [PM]
Display posts from previous:    
Reply to topic

The time now is: Today 12:22

All times are GMT + 3 Hours



You cannot post new topics in this forum
You cannot reply to topics in this forum
You cannot edit your posts in this forum
You cannot delete your posts in this forum
You cannot vote in polls in this forum
You cannot attach files in this forum
You cannot download files in this forum