Today is a free download without charge Download

Золотая рыбка в городе N (Степан Пучинян) [2011, Россия, детский, фэнтези, DVD5] R5 «Новый Диск»

Reply to topic
 
Author
Message

Koralina ®

Longevity: 9 years 7 months

Posts: 994

Location: Lithuania

Торрент-статистика

Post 12-Apr-2012 17:37

[Quote]

Золотая рыбка в городе N«Нереальная сказка» Русское название: Золотая рыбка в городе N
Оригинальное название: Zolotaya rybka v gorode N
Год выхода: 2011
Режиссер: Степан Пучинян
В ролях: Екатерина Гусева, Армен Джигарханян, Екатерина Крупенина, Алексей Шевченков, Дмитрий Харатьян, Александр Воробьев, Татьяна Конюхова, Игорь Кулачко, Елена Санаева, Тамара Сёмин
Страна производства: Россия
Студия: Ibrus
Российская премьера: 24 ноября 2011, «RUSCICO»
Дата выхода DVD: 12 апреля 2012, «Новый Диск»
Продолжительность: 90 мин. / 01:30
Продюсер: Степан Пучинян
Сценарий: Владимир Федосеев
Жанр: детский, фэнтези
Перевод: Оригинал [Лицензия]
Cубтитры: английские
Оригинальная аудиодорожка: русский
Описание: Мальчик поймал золотую рыбку и ничего не выпросив, отпускает. В знак благодарности, золотая рыбка решила подарить мальчику новый импортный велосипед, о котором мальчик давно мечтал. И вот мальчик приходит домой с новым велосипедом. Родители удивляются, расспрашивают и, естественно, не верят своему сыну. Разве может золотая рыбка дарить велосипеды? Они подозревают сына в воровстве и обмане. Но, наконец, мальчику удается убедить своих родителей и оправдать свое честное имя. Но этот факт немедленно становится достоянием небольшого провинциального городка. На мальчика посыпались просьбы и приказы с немедленным исполнением желаний.
Бонусы: Смотрите на DVD

Релиз группы:
Качество: DVD5 R5
Формат: DVD-Video
Видео кодек: MPEG2
Аудио кодек: AC3
Видео: PAL 4:3 (720x576(0.432)) MPEG Video, 25,000 кадр/сек, 4478 Кбит/сек
Аудио: Russian (Dolby AC3, 6 ch) 448 Кбит/сек, 48,0 КГц

DVDInfo

Title:
Size: 3.65 Gb ( 3 826 606 KBytes ) - DVD-5
Enabled regions: 1, 2, 3, 4, 5, 6, 7, 8
VTS_01 :
Play Length: 00:00:10
Video: PAL 4:3 (720x576) VBR
VTS_02 :
Play Length: 00:00:22
Video: PAL 4:3 (720x576) VBR
Audio:
Not specified (Dolby AC3, 6 ch)
VTS_03 :
Play Length: 01:39:40
Video: PAL 4:3 (720x576) VBR
Audio:
Russian (Dolby AC3, 6 ch)
Subtitles:
English
VTS_04 :
Play Length: 00:01:47
Video: PAL 16:9 (720x576) VBR, Auto Letterboxed
Audio:
Russian (Dolby AC3, 2 ch)
Menu Video:
PAL 4:3 (720x576) VBR
Menu English Language Unit :
Root Menu

MediaInfo

Общее
Полное имя : J:\Новинки 2012\Zolotaja.rybka.v.gorode.N.2011.DVD5\VIDEO_TS\VTS_03_2.VOB
Формат : MPEG-PS
Размер файла : 1024 Мбайт
Продолжительность : 28 м.
Режим общего битрейта : Переменный
Общий поток : 5026 Кбит/сек
Видео
Идентификатор : 224 (0xE0)
Формат : MPEG Video
Версия формата : Version 2
Профиль формата : [email protected]
Параметр BVOP формата : Да
Параметр матрицы формата : Выборочная
Параметр GOP формата : M=3, N=12
Продолжительность : 28 м.
Вид битрейта : Переменный
Битрейт : 4478 Кбит/сек
Максимальный битрейт : 9400 Кбит/сек
Ширина : 720 пикселей
Высота : 576 пикселей
Соотношение сторон : 4:3
Частота кадров : 25,000 кадров/сек
Стандарт вещания : PAL
Цветовое пространство : YUV
Субдискретизация насыщенности : 4:2:0
Битовая глубина : 8 бит
Тип развёртки : Чересстрочная
Порядок развёртки : Верхнее поле первое
Метод сжатия : С потерями
Бит/(Пиксели*Кадры) : 0.432
Размер потока : 912 Мбайт (89%)
Основные цвета : BT.470-2 System B, BT.470-2 System G
Характеристики трансфера : BT.470-2 System B, BT.470-2 System G
Коэффициенты матрицы : BT.470-2 System B, BT.470-2 System G
Аудио
Идентификатор : 189 (0xBD)-128 (0x80)
Формат : AC-3
Формат/Информация : Audio Coding 3
Расширение режима : CM (complete main)
Режим смешивания : DVD-Video
Продолжительность : 28 м.
Вид битрейта : Постоянный
Битрейт : 448 Кбит/сек
Каналы : 6 каналов
Расположение каналов : Front: L C R, Side: L R, LFE
Частота : 48,0 КГц
Битовая глубина : 16 бит
Метод сжатия : С потерями
Задержка видео : -280 мс.
Размер потока : 91,3 Мбайт (9%)
Текст
Идентификатор : 189 (0xBD)-32 (0x20)
Формат : RLE
Формат/Информация : Run-length encoding
Режим смешивания : DVD-Video
Продолжительность : 28 м.
Задержка видео : 2 с. 120 мс.

Скриншоты меню

   

Скриншоты фильма

               

_________________
Other forum [Profile] [PM]
Similar theme
Forum Topic Author Torrent Replies Last Post
./templates/default/images/folder_dl.gif Зарубежное кино Золото дезертиров / Zloto dezerterow / Deserter\'s Gold (1998) HDTVRip [720p] UndegraundMen
0 | 1

0 | 869

0

2013-10-10 17:00
UndegraundMen Latest
Display posts from previous:    
Reply to topic

The time now is: Today 02:55

All times are GMT + 3 Hours



You cannot post new topics in this forum
You cannot reply to topics in this forum
You cannot edit your posts in this forum
You cannot delete your posts in this forum
You cannot vote in polls in this forum
You cannot attach files in this forum
You cannot download files in this forum