Today is a free download without charge Download

Приключения китайчат (Мария Бендерская) [1928, Приключения, анимация, немое кино, DVDRip] Rus Sub

Reply to topic
 
Author
Message

Omen ®

Longevity: 7 years 11 months

Posts: 181087

Торрент-статистика

Post 24-Apr-2015 00:45

[Quote]

Приключения китайчат
Страна: СССР
Жанр: Приключения, анимация, немое кино
Продолжительность: 00:23:38
Год выпуска: 1928
Перевод: Не требуется
Русские субтитры: есть

Режиссёр: Мария Бендерская
Описание: Приключения китайчат, которые нигде не находят счастья, кроме Советского Союза, где их- сердечно встречают пионеры.
Доп. информация: Релиз: , ukkond
Благодарность за постер принадлежит: lidakalju (кинозал.тв)
В раздаче присутствуют английские, русские и китайские субтитры.

Семпл: https://yadi.sk/i/bbaDIi0RgCeRi
Качество: DVDRip
Формат: AVI
Видео: 640x480 (1.33:1), 24 fps, XviD build 50 ~1582 kbps avg, 0.21 bit/pixel
Аудио: 44.100 kHz, MPEG Layer 3, 2 ch, ~128.00 kbps avg
Субтитры:

скрытый текст

Русские:
1
00:00:00,000 --> 00:00:01,900
Приключения КИТАЙСКИХ ДЕТЕЙ
2
00:00:02,000 --> 00:00:06,900
Сценарий: В. С. Levington
3
00:00:07,000 --> 00:00:12,900
Анимация: М. В. Бендерская и SA Бендерский
4
00:00:15,250 --> 00:00:16,325
ЧАСТЬ ПЕРВАЯ
5
00:00:17,000 --> 00:00:23,900
Это было в Китае, в былые годы, в старом городе Шанхае.
6
00:00:47,500 --> 00:00:52,400
Бедных кули имени Чи-Хай, осуществляется тяжелые ящики с Chai.
7
00:01:19,000 --> 00:01:25,400
Двое детей был этот чай с поставщиком, сына, Lipup, и дочь, Likaya.
8
00:02:16,500 --> 00:02:22,150
Рядом находилась богатый человек и # 39; ы домой, где жил англичанин по имени Том.
9
00:02:22,250 --> 00:02:27,400
Богатый человек никогда не уделял много внимания, к тому, что дети должны были съесть.
10
00:02:27,500 --> 00:02:32,400
Китайцы работал, пока они не были синими, а Том и # 39; ы живот рос и рос.
11
00:02:47,750 --> 00:02:51,650
Таким образом, в печи они ведомого и гудел, как их хозяин и # 39; ы одежда застонал.
12
00:02:52,000 --> 00:02:56,400
Они посадили риса по крупицам, и Том & # 39; кошелек сек заполнено снова.
13
00:05:15,750 --> 00:05:20,900
Наши две Китайцы, Том и # 39; книжек, превратился в маленьких поваров.
14
00:05:40,500 --> 00:05:46,150
Там они узнали, в один миг, что, будучи рабом, не так приятно.
15
00:07:03,250 --> 00:07:08,650
Мои ноги болят, плакали Likaya. Ее слезы капали вниз, в пирог.
16
00:07:24,500 --> 00:07:29,400
Ланч и пить вино, гости ждали сладкие пирога.
17
00:07:56,500 --> 00:08:01,650
Том взял один укус сладкое, то вскочил в гневе со своего сиденья.

Подробные технические данные

Format : AVIFormat/Info : Audio Video InterleaveFile size : 291 MiBDuration : 23mn 38sOverall bit rate : 1 720 Kbps
VideoID : 0Format : MPEG-4 VisualFormat profile : Advanced [email protected] settings, BVOP : YesFormat settings, QPel : NoFormat settings, GMC : No warppointsFormat settings, Matrix : Default (H.263)Codec ID : XVIDCodec ID/Hint : XviDDuration : 23mn 38sBit rate : 1 583 KbpsWidth : 640 pixelsHeight : 480 pixelsDisplay aspect ratio : 4:3Frame rate : 24.000 fpsColor space : YUVChroma subsampling : 4:2:0Bit depth : 8 bitsScan type : ProgressiveBits/(Pixel*Frame) : 0.215Stream size : 268 MiB (92%)Writing library : XviD 1.2.1 (UTC 2008-12-04)
AudioID : 1Format : MPEG AudioFormat version : Version 1Format profile : Layer 3Codec ID : 55Codec ID/Hint : MP3Duration : 23mn 37sBit rate mode : ConstantBit rate : 128 KbpsChannel(s) : 2 channelsSampling rate : 44.1 KHzStream size : 21.6 MiB (7%)Alignment : Aligned on interleavesInterleave, duration : 42 ms (1.00 video frame)Writing library : LAMEЄЄ

Скриншоты

Other forum [Profile] [PM]
Similar theme
Forum Topic Author Torrent Replies Last Post
./templates/default/images/folder_dl.gif Фильмы 2001-2010 Гарри Поттер и узник Азкабана / Harry Potter And The Prisoner Of Azkaban (Альфонсо Куарон) (Приключения, Семейный, Фэнтези, 2004) DVDRip [Расширенная версия /Extended Cut] Omen
1 | 0

0 | 1274

22

2013-06-21 22:24
Omen Latest
./templates/default/images/folder_dl.gif Зарубежное кино Джек – покоритель великанов / Jack the Giant Slayer (Брайан Сингер / Bryan Singer) [2013, США, фэнтези, приключения, BDRip 720p] Dub + Original (Eng) + Ukr (Dub) + Sub (Rus, Eng) Omen
1 | 0

0 | 611

1

2014-01-05 20:00
Omen Latest
./templates/default/images/folder_dl.gif Фильмы 2001-2010 Невероятная жизнь Уолтера Митти / The Secret Life of Walter Mitty (Бен Стиллер / Ben Stiller, 2013, Приключения, мелодрама, драма, комедия, фэнтези) WEB-DL [H.264/1080p-LQ] Omen
1 | 0

0 | 939

36

2014-03-26 22:37
Omen Latest
./templates/default/images/folder_dl.gif Discovery Discovery. Выживание без купюр / Marooned with Ed Staffordl (Эд Стаффорд)[2014.,Документальный, приключения, экстрим, природа] SATRip (серии 1-5 из 5) sashau
0 | 1

0 | 2817

6

2014-08-18 13:49
sashau Latest
./templates/default/images/folder_dl.gif Фильмы до 2000 года Не бойся, я с тобой! (Юлий Гусман) [1981, Комедия, Приключения, DVDRip] [H.264] Omen
1 | 0

0 | 2204

20

2014-09-24 12:59
Omen Latest
./templates/default/images/folder_dl.gif Историческая литература Андрей Болотов | Жизнь и приключения Андрея Болотова, описанныя самим им для своих потомков. Том 1-3 (2013) [PDF] Omen
1 | 0

0 | 2295

6

2015-01-01 15:06
Omen Latest
./templates/default/images/folder_dl.gif Обучающее видео Учебный центр 1C | Использование прикладного решения 1С Розница 8.2 Редакция 2 (2015) PCRec Varius
1 | 0

0 | 2527

44

2015-07-16 05:16
Varius Latest
./templates/default/images/folder_dl.gif Зарубежное кино Изгой-один: Звёздные войны. Истории / Rogue One: A Star Wars Story (Гарет Эдвардс) [2016 г., фантастика, боевик, приключения, BDRip 1080p] DUB | Чистый звук Theseus
1 | 0

0 | 7785

8

2017-03-22 11:05
Theseus Latest
./templates/default/images/folder_dl.gif Зарубежные сериалы Игра престолов / Game of Thrones / Сезон: 8 / Серии: 1-6 из 6 (Алан Тейлор / Alan Taylor) [2019, фэнтези, боевик, драма, мелодрама, приключения, WEB-DL 1080p] MVO (Amedia / Новамедиа) + Original + Sub (Rus, Eng) ¶ }{@R0N
1 | 0

0 | 1892

0

2019-05-20 12:02
}{@R0N Latest
./templates/default/images/folder_dl.gif Фильмы 2011-2020 Фиксики против кработов (Василий Бедошвили, Олег Ужинов, Иван Пшонкин) [2019 г., приключения, музыка, мультфильм, WEB-DLRip] kilmister777
1 | 0

0 | 686

3

2020-02-05 13:57
kilmister777 Latest
Display posts from previous:    
Reply to topic

The time now is: Today 16:12

All times are GMT + 3 Hours



You cannot post new topics in this forum
You cannot reply to topics in this forum
You cannot edit your posts in this forum
You cannot delete your posts in this forum
You cannot vote in polls in this forum
You cannot attach files in this forum
You cannot download files in this forum