Today is a free download without charge Download

Раскол / Серии: 20 из 20 (Николай Досталь) [2011, Россия, драма, история, 4 x DVD9 R5]

Reply to topic
 
Author
Message

Koralina ®

Longevity: 10 years

Posts: 994

Location: Lithuania

Торрент-статистика

Post 12-Apr-2012 01:11

[Quote]

Раскол
Страна: Россия
Год выпуска: 2011
Производство: КиноКомпания "Аврора" при участии Студии "Эталон" по заказу ВГТРК
Жанр: драма, история
Продолжительность: 960 минут
Продюсер: Владимир Досталь
Сценарий: Николай Досталь, Михаил Кураев
Режиссёр: Николай Досталь
В ролях: Александр Коротков, Юлия Мельникова, Дмитрий Тихонов, Юлия Назаренко, Валерий Гришко, Дарья Екамасова, Александр Баширов, Роман Мадянов, Ольга Аксёнова-Кавалай, Михаил Асанкин, Александр Соколовский, Александр Коршунов, Валерия Буданкова, Всеволод Иванов, Георгий Караяннидис, Артем Кобзев, Владимир Устюгов, Вадим Мадянов, Виктор Маркин, Павел Меленчук, Владимир Мельников, Алексей Морозов, Тагир Рахимов, Игорь Яцко, Игорь Григорьев, Владислав Ветров, Елена Новикова, Наталья Омельченко, Александра Черкасова, Тамара Самсонова, Александр Обласов, Никита Заболотный, Евгения Казарина, Виталий Кищенко, Владимир Яворский, Илья Козин, Иван Соловьев, Ярослав Иванов, Эдуард Марцевич, Ульяна Похлебаева, Виталий Жигалин, Владимир Шульга, Сергей Мамаев, Юрий Ашихмин, Александр Трофимов, Валерий Скорокосов, Олег Любимов, Александр Сирин, Иван Верховых, Павел Любимцев, Феликс Антипов, Владимир Тягичев, Сергей Кудимов, Вячеслав Соловиченко, Андрей Щукин, Сергей Пинегин, Вячеслав Глушков, Анатолий Тумбин, Юрий Лагута, Михаил Крылов, Марина Петренко, Георгий Назаренко, Николай Шатохин, Павел Буйнаков, Янис Политов, Сергей Потапов, Тимофей Трибунцев, Вячеслав Шихалеев, Екатерина Беляева, Георгий Вавилов, Елена Доронина, Рамис Ибрагимов, Михаил Леонцев, Владимир Любовский, Владимир Сычев, Петр Янданов (Янданэ), Роман Ярославцев, Михаил Суров, Владимир Портнов, Станислав Любшин, Андрей Кузьмин, Ольга Антропова, Илья Хвостиков...
Описание: В фильме "Раскол" запечатлен тяжелейший и малоизвестный период российской истории. История раскола русской Православной церкви в XVII веке. О судьбах исторических лиц - царя Алексея Михайловича и его сына Федора Алексеевича, братьев Морозовых, боярыни Феодосии Морозовой, о церковных реформах патриарха Никона и ярых противниках этих реформ во главе с протопопом Аввакумом.
- - Тип релиза: DVD9 R5
Контейнер: DVD Video
Видео: PAL 4x3 (720х576) VBR ~ 3804 kbps
Аудио: 48 kHz, AC3, 6 ch, 448 kbps
Меню: анимированное
Доп. материалы: Смотрите на DVD, создатели и исполнители, Фотогалерея

DVDInfo

Title: D1
Size: 7.71 Gb ( 8 079 614,00 KBytes ) - DVD-9
Enabled regions: 1, 2, 3, 4, 5, 6, 7, 8
VTS_01 :
Play Length: 00:00:05
Video: PAL 4:3 (720x576) VBR
Subtitles:
English
English
VTS_02 :
Play Length: 00:00:09
Video: PAL 16:9 (720x576) VBR, Auto Letterboxed
Audio:
Not specified (Dolby AC3, 2 ch)
Not specified (Dolby AC3, 2 ch)
Subtitles:
Not specified
VTS_03 :
Play Length: 00:01:34
Video: PAL 16:9 (720x576) VBR, Auto Letterboxed
Audio:
Not specified (Dolby AC3, 2 ch)
Subtitles:
Not specified
VTS_04 :
Play Length: 00:51:31
Video: PAL 4:3 (720x576) VBR
Audio:
Russian, AC3, 3/2 (L,C,R,SL,SR)+LFE ch, 448 kbps, Delay 0 mSec
VTS_05 :
Play Length: 00:50:22
Video: PAL 4:3 (720x576) VBR
Audio:
Russian (Dolby AC3, 6 ch)
VTS_06 :
Play Length: 00:49:13
Video: PAL 4:3 (720x576) VBR
Audio:
Russian (Dolby AC3, 6 ch)
VTS_07 :
Play Length: 00:51:03
Video: PAL 4:3 (720x576) VBR
Audio:
Russian (Dolby AC3, 6 ch)
VTS_08 :
Play Length: 00:51:09
Video: PAL 4:3 (720x576) VBR
Audio:
Russian (Dolby AC3, 6 ch)

Скриншоты меню

       

Скриншоты

           

Обложки и блины

http://multi-up.com/684152

MI

Общее
Полное имя : Raskol.2011.O.4xDVD9\D4\VIDEO_TS\VTS_04_1.VOB
Формат : MPEG-PS
Размер файла : 1024 Мбайт
Продолжительность : 33 м.
Режим общего битрейта : Переменный
Общий поток : 4247 Кбит/сек
Видео
Идентификатор : 224 (0xE0)
Формат : MPEG Video
Версия формата : Version 2
Профиль формата : [email protected]
Параметр BVOP формата : Да
Параметр матрицы формата : Выборочная
Параметр GOP формата : M=3, N=12
Продолжительность : 33 м.
Вид битрейта : Переменный
Битрейт : 3715 Кбит/сек
Максимальный битрейт : 7500 Кбит/сек
Ширина : 720 пикселей
Высота : 576 пикселей
Соотношение сторон : 4:3
Частота кадров : 25,000 кадров/сек
Стандарт вещания : PAL
Цветовое пространство : YUV
Субдискретизация насыщенности : 4:2:0
Битовая глубина : 8 бит
Тип развёртки : Чересстрочная
Порядок развёртки : Нижнее поле первое
Метод сжатия : С потерями
Бит/(Пиксели*Кадры) : 0.358
Размер потока : 896 Мбайт (87%)
Основные цвета : BT.470-2 System B, BT.470-2 System G
Характеристики трансфера : BT.470-2 System B, BT.470-2 System G
Коэффициенты матрицы : SMPTE 170M
Аудио
Идентификатор : 189 (0xBD)-128 (0x80)
Формат : AC-3
Формат/Информация : Audio Coding 3
Расширение режима : CM (complete main)
Параметр Endianness формата : Big
Режим смешивания : DVD-Video
Продолжительность : 33 м.
Вид битрейта : Постоянный
Битрейт : 448 Кбит/сек
Каналы : 6 каналов
Расположение каналов : Front: L C R, Side: L R, LFE
Частота : 48,0 КГц
Битовая глубина : 16 бит
Метод сжатия : С потерями
Размер потока : 108 Мбайт (11%)
Меню

_________________
Other forum [Profile] [PM]
Display posts from previous:    
Reply to topic

The time now is: Today 14:19

All times are GMT + 3 Hours



You cannot post new topics in this forum
You cannot reply to topics in this forum
You cannot edit your posts in this forum
You cannot delete your posts in this forum
You cannot vote in polls in this forum
You cannot attach files in this forum
You cannot download files in this forum