Today is a free download without charge Download

Трансформеры - Трилогия / Transformers - Trilogy (Майкл Бэй / Michael Baye) [2007,2009,2011 гг., США, Боевик,Фантастика, Blu-Ray]

Reply to topic
 
Author
Message

Стасмэн ®

Gender:

Longevity: 10 years

Posts: 133

Торрент-статистика

Post 11-Apr-2012 19:32

[Quote]

Трансформеры - Трилогия / Transformers - Trilogy
Год выпуска: 2007,2009,2011
Страна: США
Жанр: Боевик,Фантастика
Продолжительность: 07:27:03
Перевод: Профессиональный(дублированный)
Режиссер: Майкл Бэй / Michael Baye
Продюссер: Дон Мерфи, Йен Брюс, Том ДеСанто
Бюджет: $150 000 000,$200 000 000,$195 000 000
Премьера в мире: 12 июня 2007,19 июня 2009,25 июня 2011
В ролях: Шайа ЛаБаф,Меган Фокс,Джош Дюамель,Тайриз Гибсон,Рэйчел Тейлор,Энтони Андерсон,Рамон Родригез,Кевин Данн,Джули Уайт,Изабель Лукас,Джон Бенжамин Хикк,Патрик Демпси,Джон Малкович,Питер Каллен....
Качество: Blu-Ray
Формат: BDMV
Видео кодек: MPEG-4 AVC
Аудио кодек: Dolby Digital,Dolby TrueHD,DTS-HD

Трансформеры

Трансформеры / TransformersГод выпуска: 2007
Страна: США
Жанр: Боевик,Фантастика
Продолжительность: 02:23:27
Перевод: Профессиональный (полное дублирование)
Режиссер: Майкл Бэй / Michael Baye
В ролях: Шайа ЛаБаф,Меган Фокс,Джош Дюамель,Тайриз Гибсон,Рэйчел Тейлор,Энтони Андерсон...
Описание: В течение многих столетий две расы роботов-инопланетян — Автоботы и Десептиконы — вели войну, ставкой в которой была судьба Bселенной. И вот война докатилась до Земли. В то время, когда силы зла ищут ключ к верховной власти, наш последний шанс на спасение находится в руках юного землянина. Единственное, что стоит между несущими зло Десептиконами и высшей властью — это ключ, находящийся в руках простого парнишки.

Качество: Blu-Ray
Формат: BDMV
Видео кодек: MPEG-4 AVC
Аудио кодек: Dolby Digital,Dolby TrueHD
Видео: Video: MPEG-4 AVC Video / 31414 kbps / 1080p / 23,976 fps / 16:9 / High Profile 4.1
* Video: MPEG-4 AVC Video / 690 kbps / 480p / 23,976 fps / 16:9 / High Profile 3.2
Аудио:
Audio 1: English / Dolby TrueHD Audio / 5.1 / 48 kHz / 2369 kbps / 24-bit (AC3 Embedded: 5.1 / 48 kHz / 640 kbps / DN -4dB)
* Audio 2: English / Dolby Digital Plus Audio / 2.0 / 48 kHz / 192 kbps
Audio 3: Czech / Dolby Digital Audio / 5.1 / 48 kHz / 640 kbps / DN -4dB
Audio 4: Polish / Dolby Digital Audio / 5.1 / 48 kHz / 640 kbps / DN -4dB
Audio 5: Russian / Dolby Digital Audio / 5.1 / 48 kHz / 640 kbps / DN -4dB
Audio 6: Turkish / Dolby Digital Audio / 5.1 / 48 kHz / 640 kbps / DN -4dB
Audio 7: English / Dolby Digital Audio / 2.0 / 48 kHz / 192 kbps / DN -4dB / Dolby Surround

BDInfo

Код:
Disc Title:     Трансформеры
Disc Size:      45 660 361 506 bytes
Protection:     AACS
BD-Java:        Yes
BDInfo:         0.5.8
Notes:
BDINFO HOME:
  Cinema Squid
    http://www.cinemasquid.com/blu-ray/tools/bdinfo
INCLUDES FORUMS REPORT FOR:
  AVS Forum Blu-ray Audio and Video Specifications Thread
    http://www.avsforum.com/avs-vb/showthread.php?t=1155731
********************
PLAYLIST: 00010.MPLS
********************
<--- BEGIN FORUMS PASTE --->
[code]
                                                                                                                Total   Video
Title                                                           Codec   Length  Movie Size      Disc Size       Bitrate Bitrate Main Audio Track                          Secondary Audio Track
-----                                                           ------  ------- --------------  --------------  ------- ------- ------------------                        ---------------------
00010.MPLS                                                      AVC     2:23:27 45 213 898 752  45 660 361 506  42,02   31,41   Dolby TrueHD 5.1 2369Kbps (48kHz/24-bit)
Код:
DISC INFO:
Disc Title:     Трансформеры
Disc Size:      45 660 361 506 bytes
Protection:     AACS
BD-Java:        Yes
BDInfo:         0.5.8
PLAYLIST REPORT:
Name:                   00010.MPLS
Length:                 2:23:27.307 (h:m:s.ms)
Size:                   45 213 898 752 bytes
Total Bitrate:          42,02 Mbps
(*) Indicates included stream hidden by this playlist.
VIDEO:
Codec                   Bitrate             Description
-----                   -------             -----------
MPEG-4 AVC Video        31414 kbps          1080p / 23,976 fps / 16:9 / High Profile 4.1
* MPEG-4 AVC Video      690 kbps            480p / 23,976 fps / 16:9 / High Profile 3.2
AUDIO:
Codec                           Language        Bitrate         Description
-----                           --------        -------         -----------
Dolby TrueHD Audio              English         2369 kbps       5.1 / 48 kHz / 2369 kbps / 24-bit (AC3 Embedded: 5.1 / 48 kHz / 640 kbps / DN -4dB)
* Dolby Digital Plus Audio      English         192 kbps        2.0 / 48 kHz / 192 kbps
Dolby Digital Audio             Czech           640 kbps        5.1 / 48 kHz / 640 kbps / DN -4dB
Dolby Digital Audio             Polish          640 kbps        5.1 / 48 kHz / 640 kbps / DN -4dB
Dolby Digital Audio             Russian         640 kbps        5.1 / 48 kHz / 640 kbps / DN -4dB
Dolby Digital Audio             Turkish         640 kbps        5.1 / 48 kHz / 640 kbps / DN -4dB
Dolby Digital Audio             English         192 kbps        2.0 / 48 kHz / 192 kbps / DN -4dB / Dolby Surround
SUBTITLES:
Codec                           Language        Bitrate         Description
-----                           --------        -------         -----------
Presentation Graphics           Arabic          16,956 kbps
Presentation Graphics           Bulgarian       28,968 kbps
Presentation Graphics           Czech           25,259 kbps
Presentation Graphics           English         41,739 kbps
Presentation Graphics           Estonian        29,206 kbps
Presentation Graphics           Croatian        26,702 kbps
Presentation Graphics           Icelandic       30,629 kbps
Presentation Graphics           Lithuanian      29,559 kbps
Presentation Graphics           Latvian         27,541 kbps
Presentation Graphics           Polish          26,670 kbps
Presentation Graphics           Russian         41,327 kbps
Presentation Graphics           Slovak          38,733 kbps
Presentation Graphics           Slovenian       25,615 kbps
Presentation Graphics           Serbian         29,702 kbps
Presentation Graphics           Turkish         32,650 kbps
Presentation Graphics           Ukrainian       41,890 kbps
Presentation Graphics           English         53,025 kbps
Presentation Graphics           Czech           0,203 kbps
Presentation Graphics           Russian         0,418 kbps
Presentation Graphics           Turkish         0,220 kbps
* Presentation Graphics         English         25,328 kbps
FILES:
Name            Time In         Length          Size            Total Bitrate
----            -------         ------          ----            -------------
00010.M2TS      0:00:00.000     2:23:27.307     45 213 898 752  42 024
CHAPTERS:
Number          Time In         Length          Avg Video Rate  Max 1-Sec Rate  Max 1-Sec Time  Max 5-Sec Rate  Max 5-Sec Time  Max 10Sec Rate  Max 10Sec Time  Avg Frame Size  Max Frame Size  Max Frame Time
------          -------         ------          --------------  --------------  --------------  --------------  --------------  --------------  --------------  --------------  --------------  --------------
1               0:00:00.000     0:02:04.707     26 164 kbps     40 936 kbps     00:00:18.309    35 573 kbps     00:00:14.264    34 775 kbps     00:01:07.650    136 362 bytes   525 931 bytes   00:00:19.019
2               0:02:04.707     0:06:49.826     33 088 kbps     45 809 kbps     00:07:54.098    35 625 kbps     00:06:02.070    34 902 kbps     00:06:12.997    172 505 bytes   551 935 bytes   00:07:55.057
3               0:08:54.534     0:06:39.107     31 601 kbps     37 980 kbps     00:13:15.878    35 281 kbps     00:11:46.664    35 041 kbps     00:13:15.461    164 756 bytes   603 282 bytes   00:13:38.400
4               0:15:33.641     0:06:47.740     31 817 kbps     38 168 kbps     00:19:00.180    35 287 kbps     00:20:29.561    35 044 kbps     00:15:59.249    165 880 bytes   631 204 bytes   00:18:20.140
5               0:22:21.381     0:05:21.279     31 381 kbps     37 643 kbps     00:24:42.564    35 222 kbps     00:22:55.248    35 018 kbps     00:22:51.787    163 608 bytes   562 753 bytes   00:22:23.759
6               0:27:42.661     0:05:42.717     32 055 kbps     38 719 kbps     00:31:51.993    35 254 kbps     00:30:49.764    35 085 kbps     00:29:47.619    167 122 bytes   534 701 bytes   00:27:44.663
7               0:33:25.378     0:05:32.623     31 030 kbps     37 856 kbps     00:36:03.202    35 203 kbps     00:35:05.353    34 935 kbps     00:35:12.068    161 776 bytes   528 644 bytes   00:37:00.134
8               0:38:58.002     0:06:15.917     31 978 kbps     39 935 kbps     00:42:59.785    35 480 kbps     00:44:44.681    35 069 kbps     00:41:47.379    166 719 bytes   572 494 bytes   00:44:49.645
9               0:45:13.919     0:06:32.517     31 646 kbps     38 272 kbps     00:50:44.750    35 485 kbps     00:50:40.662    34 950 kbps     00:46:43.008    164 985 bytes   570 222 bytes   00:48:16.184
10              0:51:46.436     0:06:58.251     31 730 kbps     40 555 kbps     00:52:10.001    35 480 kbps     00:53:57.067    35 051 kbps     00:54:41.736    165 424 bytes   460 339 bytes   00:54:48.994
11              0:58:44.687     0:08:03.733     31 890 kbps     39 128 kbps     00:58:51.110    35 309 kbps     01:00:31.919    35 039 kbps     01:00:15.570    166 260 bytes   508 239 bytes   01:03:02.570
12              1:06:48.421     0:05:05.138     31 209 kbps     37 428 kbps     01:06:50.339    35 286 kbps     01:06:49.380    34 999 kbps     01:11:24.029    162 708 bytes   533 981 bytes   01:10:59.630
13              1:11:53.559     0:05:02.885     31 445 kbps     38 244 kbps     01:14:00.269    35 299 kbps     01:13:40.249    35 027 kbps     01:14:56.325    163 942 bytes   491 228 bytes   01:12:47.821
14              1:16:56.445     0:06:40.900     31 639 kbps     37 999 kbps     01:19:46.782    35 255 kbps     01:17:53.293    35 056 kbps     01:16:58.905    164 950 bytes   444 264 bytes   01:19:36.521
15              1:23:37.345     0:05:26.826     31 947 kbps     39 873 kbps     01:27:52.600    35 289 kbps     01:28:17.083    34 903 kbps     01:25:56.442    166 557 bytes   439 780 bytes   01:24:32.734
16              1:29:04.172     0:07:24.569     31 416 kbps     37 995 kbps     01:30:36.222    35 280 kbps     01:30:31.968    35 105 kbps     01:30:27.296    163 790 bytes   582 369 bytes   01:35:04.365
17              1:36:28.741     0:07:29.365     31 724 kbps     39 477 kbps     01:42:49.079    35 428 kbps     01:38:32.281    35 021 kbps     01:38:27.359    165 394 bytes   569 775 bytes   01:36:29.742
18              1:43:58.106     0:05:47.638     31 532 kbps     38 120 kbps     01:44:39.314    35 388 kbps     01:46:07.361    34 692 kbps     01:46:37.891    164 393 bytes   564 541 bytes   01:48:26.166
19              1:49:45.745     0:07:08.261     31 695 kbps     41 719 kbps     01:49:57.340    35 626 kbps     01:54:55.638    35 121 kbps     01:54:50.675    165 245 bytes   509 978 bytes   01:53:13.369
20              1:56:54.007     0:06:15.875     31 644 kbps     39 547 kbps     01:57:33.296    35 734 kbps     01:57:29.208    34 864 kbps     02:02:34.347    164 978 bytes   521 315 bytes   02:02:34.430
21              2:03:09.882     0:07:34.036     31 691 kbps     40 129 kbps     02:10:20.771    35 453 kbps     02:09:29.970    35 181 kbps     02:09:25.048    165 220 bytes   503 544 bytes   02:07:27.097
22              2:10:43.919     0:04:18.383     32 105 kbps     38 702 kbps     02:11:16.243    35 335 kbps     02:14:14.629    35 015 kbps     02:14:14.755    167 379 bytes   549 624 bytes   02:14:20.594
23              2:15:02.302     0:08:25.004     27 616 kbps     38 918 kbps     02:16:42.027    35 325 kbps     02:15:20.570    35 107 kbps     02:15:18.777    143 987 bytes   737 573 bytes   02:21:10.879
STREAM DIAGNOSTICS:
File            PID             Type            Codec           Language                Seconds                 Bitrate                 Bytes           Packets
----            ---             ----            -----           --------                --------------          --------------          -------------   -----
00010.M2TS      4113 (0x1011)   0x1B            AVC                                     8607,224                31 415                  33 799 076 036  183 812 308
00010.M2TS      4352 (0x1100)   0x83            TrueHD          eng (English)           8607,224                3 009                   3 237 777 130   24 760 365
00010.M2TS      4353 (0x1101)   0x81            AC3             ces (Czech)             8607,224                640                     688 586 240     4 034 685
00010.M2TS      4354 (0x1102)   0x81            AC3             pol (Polish)            8607,224                640                     688 586 240     4 034 685
00010.M2TS      4355 (0x1103)   0x81            AC3             rus (Russian)           8607,224                640                     688 586 240     4 034 685
00010.M2TS      4356 (0x1104)   0x81            AC3             tur (Turkish)           8607,224                640                     688 586 240     4 034 685
00010.M2TS      4357 (0x1105)   0x81            AC3             eng (English)           8607,224                192                     206 575 872     1 344 895
00010.M2TS      4608 (0x1200)   0x90            PGS             ara (Arabic)            8607,224                17                      18 243 662      111 083
00010.M2TS      4609 (0x1201)   0x90            PGS             bul (Bulgarian)         8607,224                29                      31 167 000      180 522
00010.M2TS      4610 (0x1202)   0x90            PGS             ces (Czech)             8607,224                25                      27 176 038      158 941
00010.M2TS      4611 (0x1203)   0x90            PGS             eng (English)           8607,224                42                      44 907 012      256 877
00010.M2TS      4612 (0x1204)   0x90            PGS             est (Estonian)          8607,224                29                      31 422 720      182 144
00010.M2TS      4613 (0x1205)   0x90            PGS             hrv (Croatian)          8607,224                27                      28 728 918      168 000
00010.M2TS      4614 (0x1206)   0x90            PGS             isl (Icelandic)         8607,224                31                      32 954 640      190 618
00010.M2TS      4615 (0x1207)   0x90            PGS             lit (Lithuanian)        8607,224                30                      31 802 677      184 412
00010.M2TS      4616 (0x1208)   0x90            PGS             lav (Latvian)           8607,224                28                      29 632 023      172 438
00010.M2TS      4617 (0x1209)   0x90            PGS             pol (Polish)            8607,224                27                      28 694 513      167 559
00010.M2TS      4618 (0x120A)   0x90            PGS             rus (Russian)           8607,224                41                      44 464 749      254 825
00010.M2TS      4619 (0x120B)   0x90            PGS             slk (Slovak)            8607,224                39                      41 672 951      239 615
00010.M2TS      4620 (0x120C)   0x90            PGS             slv (Slovenian)         8607,224                26                      27 559 294      161 499
00010.M2TS      4621 (0x120D)   0x90            PGS             srp (Serbian)           8607,224                30                      31 956 725      185 487
00010.M2TS      4622 (0x120E)   0x90            PGS             tur (Turkish)           8607,224                33                      35 128 541      202 932
00010.M2TS      4623 (0x120F)   0x90            PGS             ukr (Ukrainian)         8607,224                42                      45 069 952      258 112
00010.M2TS      4624 (0x1210)   0x90            PGS             eng (English)           8607,224                53                      57 050 723      322 423
00010.M2TS      4625 (0x1211)   0x90            PGS             ces (Czech)             8607,224                0                       218 000         1 271
00010.M2TS      4626 (0x1212)   0x90            PGS             rus (Russian)           8607,224                0                       449 939         2 578
00010.M2TS      4627 (0x1213)   0x90            PGS             tur (Turkish)           8607,224                0                       236 528         1 378
00010.M2TS      4628 (0x1214)   0x90            PGS             eng (English)           8607,224                25                      27 250 463      161 819
00010.M2TS      6656 (0x1A00)   0xA1            AC3+            eng (English)           8607,224                192                     206 575 872     1 344 895
00010.M2TS      6912 (0x1B00)   0x1B            AVC                                     8607,224                690                     742 897 948     4 143 364
<---- END FORUMS PASTE ---->
QUICK SUMMARY:
Disc Title: Трансформеры
Disc Size: 45 660 361 506 bytes
Protection: AACS
BD-Java: Yes
Playlist: 00010.MPLS
Size: 45 213 898 752 bytes
Length: 2:23:27.307
Total Bitrate: 42,02 Mbps
Video: MPEG-4 AVC Video / 31414 kbps / 1080p / 23,976 fps / 16:9 / High Profile 4.1
* Video: MPEG-4 AVC Video / 690 kbps / 480p / 23,976 fps / 16:9 / High Profile 3.2
Audio: English / Dolby TrueHD Audio / 5.1 / 48 kHz / 2369 kbps / 24-bit (AC3 Embedded: 5.1 / 48 kHz / 640 kbps / DN -4dB)
* Audio: English / Dolby Digital Plus Audio / 2.0 / 48 kHz / 192 kbps
Audio: Czech / Dolby Digital Audio / 5.1 / 48 kHz / 640 kbps / DN -4dB
Audio: Polish / Dolby Digital Audio / 5.1 / 48 kHz / 640 kbps / DN -4dB
Audio: Russian / Dolby Digital Audio / 5.1 / 48 kHz / 640 kbps / DN -4dB
Audio: Turkish / Dolby Digital Audio / 5.1 / 48 kHz / 640 kbps / DN -4dB
Audio: English / Dolby Digital Audio / 2.0 / 48 kHz / 192 kbps / DN -4dB / Dolby Surround
Subtitle: Arabic / 16,956 kbps
Subtitle: Bulgarian / 28,968 kbps
Subtitle: Czech / 25,259 kbps
Subtitle: English / 41,739 kbps
Subtitle: Estonian / 29,206 kbps
Subtitle: Croatian / 26,702 kbps
Subtitle: Icelandic / 30,629 kbps
Subtitle: Lithuanian / 29,559 kbps
Subtitle: Latvian / 27,541 kbps
Subtitle: Polish / 26,670 kbps
Subtitle: Russian / 41,327 kbps
Subtitle: Slovak / 38,733 kbps
Subtitle: Slovenian / 25,615 kbps
Subtitle: Serbian / 29,702 kbps
Subtitle: Turkish / 32,650 kbps
Subtitle: Ukrainian / 41,890 kbps
Subtitle: English / 53,025 kbps
Subtitle: Czech / 0,203 kbps
Subtitle: Russian / 0,418 kbps
Subtitle: Turkish / 0,220 kbps
* Subtitle: English / 25,328 kbps
[/code]

Скриншоты

     

Трансформеры 2-Месть Падших

Трансформеры 2: Месть падших / Transformers: Revenge of the FallenГод выпуска: 2009
Страна: США
Жанр: Боевик,Фантастика
Продолжительность: 02:29:53
Перевод: Профессиональный (полное дублирование)
Режиссер: Майкл Бэй / Michael Baye
В ролях: Рамон Родригез,Кевин Данн,Джули Уайт,Изабель Лукас,Джон Бенжамин Хикки....
Описание: Прошло два года с тех пор, как юный Сэм Уитвикки спас Вселенную, предотвратив глобальную битву между враждующими воинственными расами инопланетных роботов. Несмотря на свои героические подвиги, Сэм остается обычным подростком с обычными проблемами — поступлением в колледж и родителями. Разумеется, отъезд будет тяжело воспринят лучшим другом, роботом — телохранителем Бамблби.

Качество: Blu-Ray
Формат: BDMV
Видео кодек: MPEG-4 AVC
Аудио кодек: Dolby Digital,DTS-HD
Видео: Video: MPEG-4 AVC Video / 31290 kbps / 1080p / 23,976 fps / 16:9 / High Profile 4.1
Аудио:
Audio 1: English / DTS-HD Master Audio / 5.1 / 48 kHz / 4658 kbps / 24-bit (DTS Core: 5.1 / 48 kHz / 1509 kbps / 24-bit)
Audio 2: Turkish / Dolby Digital Audio / 5.1 / 48 kHz / 640 kbps / DN -4dB
Audio 3: Polish / Dolby Digital Audio / 5.1 / 48 kHz / 640 kbps / DN -6dB
Audio 4: English / Dolby Digital Audio / 2.0 / 48 kHz / 224 kbps / DN -4dB
Audio 5: Hungarian / Dolby Digital Audio / 5.1 / 48 kHz / 640 kbps / DN -4dB
Audio 6: Czech / Dolby Digital Audio / 5.1 / 48 kHz / 640 kbps / DN -4dB
Audio 7: Russian / Dolby Digital Audio / 5.1 / 48 kHz / 640 kbps / DN -4dB

BDInfo

Код:
Disc Title:     Трансформеры 2-Месть Падших
Disc Size:      48 183 305 966 bytes
Protection:     AACS
BD-Java:        Yes
BDInfo:         0.5.8
Notes:
BDINFO HOME:
  Cinema Squid
    http://www.cinemasquid.com/blu-ray/tools/bdinfo
INCLUDES FORUMS REPORT FOR:
  AVS Forum Blu-ray Audio and Video Specifications Thread
    http://www.avsforum.com/avs-vb/showthread.php?t=1155731
********************
PLAYLIST: 00003.MPLS
********************
<--- BEGIN FORUMS PASTE --->
[code]
                                                                                                                Total   Video
Title                                                           Codec   Length  Movie Size      Disc Size       Bitrate Bitrate Main Audio Track                          Secondary Audio Track
-----                                                           ------  ------- --------------  --------------  ------- ------- ------------------                        ---------------------
00003.MPLS                                                      AVC     2:29:53 47 796 166 656  48 183 305 966  42,52   31,29   DTS-HD Master 5.1 4658Kbps (48kHz/24-bit)
Код:
DISC INFO:
Disc Title:     Трансформеры 2-Месть Падших
Disc Size:      48 183 305 966 bytes
Protection:     AACS
BD-Java:        Yes
BDInfo:         0.5.8
PLAYLIST REPORT:
Name:                   00003.MPLS
Length:                 2:29:53.025 (h:m:s.ms)
Size:                   47 796 166 656 bytes
Total Bitrate:          42,52 Mbps
VIDEO:
Codec                   Bitrate             Description
-----                   -------             -----------
MPEG-4 AVC Video        31290 kbps          1080p / 23,976 fps / 16:9 / High Profile 4.1
AUDIO:
Codec                           Language        Bitrate         Description
-----                           --------        -------         -----------
DTS-HD Master Audio             English         4658 kbps       5.1 / 48 kHz / 4658 kbps / 24-bit (DTS Core: 5.1 / 48 kHz / 1509 kbps / 24-bit)
Dolby Digital Audio             Turkish         640 kbps        5.1 / 48 kHz / 640 kbps / DN -4dB
Dolby Digital Audio             Polish          640 kbps        5.1 / 48 kHz / 640 kbps / DN -6dB
Dolby Digital Audio             English         224 kbps        2.0 / 48 kHz / 224 kbps / DN -4dB
Dolby Digital Audio             Hungarian       640 kbps        5.1 / 48 kHz / 640 kbps / DN -4dB
Dolby Digital Audio             Czech           640 kbps        5.1 / 48 kHz / 640 kbps / DN -4dB
Dolby Digital Audio             Russian         640 kbps        5.1 / 48 kHz / 640 kbps / DN -4dB
SUBTITLES:
Codec                           Language        Bitrate         Description
-----                           --------        -------         -----------
Presentation Graphics           Arabic          17,756 kbps
Presentation Graphics           Bulgarian       32,677 kbps
Presentation Graphics           Czech           31,123 kbps
Presentation Graphics           Greek           31,610 kbps
Presentation Graphics           Estonian        32,035 kbps
Presentation Graphics           English         41,372 kbps
Presentation Graphics           Hebrew          25,207 kbps
Presentation Graphics           Croatian        31,542 kbps
Presentation Graphics           Icelandic       33,576 kbps
Presentation Graphics           Latvian         28,006 kbps
Presentation Graphics           Lithuanian      34,131 kbps
Presentation Graphics           Hungarian       30,594 kbps
Presentation Graphics           Polish          32,257 kbps
Presentation Graphics           Portuguese      37,481 kbps
Presentation Graphics           Russian         41,761 kbps
Presentation Graphics           Romanian        33,508 kbps
Presentation Graphics           Slovenian       28,634 kbps
Presentation Graphics           Slovak          37,266 kbps
Presentation Graphics           Serbian         33,399 kbps
Presentation Graphics           Turkish         36,165 kbps
Presentation Graphics           Ukrainian       41,905 kbps
Presentation Graphics           Czech           0,083 kbps
Presentation Graphics           Hungarian       0,007 kbps
Presentation Graphics           Polish          0,026 kbps
Presentation Graphics           Russian         0,401 kbps
Presentation Graphics           Turkish         0,197 kbps
Presentation Graphics           English         68,056 kbps
FILES:
Name            Time In         Length          Size            Total Bitrate
----            -------         ------          ----            -------------
00003.M2TS      0:00:00.000     2:29:53.025     47 796 166 656  42 518
CHAPTERS:
Number          Time In         Length          Avg Video Rate  Max 1-Sec Rate  Max 1-Sec Time  Max 5-Sec Rate  Max 5-Sec Time  Max 10Sec Rate  Max 10Sec Time  Avg Frame Size  Max Frame Size  Max Frame Time
------          -------         ------          --------------  --------------  --------------  --------------  --------------  --------------  --------------  --------------  --------------  --------------
1               0:00:00.000     0:08:49.278     32 961 kbps     42 213 kbps     00:01:27.587    36 152 kbps     00:06:15.917    35 880 kbps     00:01:44.729    171 830 bytes   808 861 bytes   00:01:02.771
2               0:08:49.278     0:06:03.363     31 962 kbps     39 439 kbps     00:13:10.372    35 990 kbps     00:12:40.468    35 830 kbps     00:12:40.050    166 635 bytes   440 567 bytes   00:14:44.842
3               0:14:52.641     0:03:25.371     30 812 kbps     36 824 kbps     00:17:45.731    35 619 kbps     00:17:36.054    35 009 kbps     00:14:56.979    160 640 bytes   336 771 bytes   00:17:25.002
4               0:18:18.013     0:06:49.617     31 348 kbps     40 106 kbps     00:23:59.229    36 244 kbps     00:20:48.455    35 772 kbps     00:19:50.814    163 433 bytes   421 308 bytes   00:24:13.869
5               0:25:07.631     0:07:52.889     31 811 kbps     37 859 kbps     00:32:43.836    35 951 kbps     00:25:18.141    35 890 kbps     00:25:13.261    165 846 bytes   427 487 bytes   00:29:57.378
6               0:33:00.520     0:04:07.247     31 527 kbps     36 739 kbps     00:33:45.106    35 961 kbps     00:35:30.336    35 400 kbps     00:35:14.779    164 365 bytes   292 544 bytes   00:33:50.653
7               0:37:07.767     0:06:25.885     31 636 kbps     37 319 kbps     00:37:45.680    36 106 kbps     00:37:19.445    35 944 kbps     00:37:35.753    164 935 bytes   388 314 bytes   00:37:49.642
8               0:43:33.652     0:11:22.890     31 711 kbps     38 676 kbps     00:53:13.231    36 254 kbps     00:53:09.102    35 832 kbps     00:46:34.541    165 328 bytes   375 896 bytes   00:54:00.987
9               0:54:56.543     0:08:27.340     31 426 kbps     39 879 kbps     00:59:57.927    36 116 kbps     00:59:30.066    35 786 kbps     00:58:33.635    163 841 bytes   437 252 bytes   01:02:09.142
10              1:03:23.883     0:09:02.124     31 899 kbps     37 971 kbps     01:05:21.918    36 154 kbps     01:03:59.627    35 739 kbps     01:05:59.997    166 308 bytes   417 178 bytes   01:09:31.000
11              1:12:26.008     0:07:46.174     31 109 kbps     37 271 kbps     01:15:56.677    36 025 kbps     01:15:52.673    35 891 kbps     01:15:47.668    162 187 bytes   336 224 bytes   01:12:38.020
12              1:20:12.182     0:06:22.882     31 774 kbps     37 274 kbps     01:26:33.062    35 970 kbps     01:23:33.883    35 671 kbps     01:22:43.249    165 657 bytes   423 317 bytes   01:26:03.074
13              1:26:35.064     0:09:06.087     31 406 kbps     37 355 kbps     01:28:49.240    36 047 kbps     01:28:45.236    35 872 kbps     01:28:13.621    163 738 bytes   396 789 bytes   01:28:21.337
14              1:35:41.152     0:09:12.927     31 797 kbps     38 459 kbps     01:44:15.415    36 196 kbps     01:44:11.411    35 928 kbps     01:39:05.147    165 777 bytes   357 119 bytes   01:36:07.344
15              1:44:54.079     0:05:40.631     31 515 kbps     39 236 kbps     01:45:21.314    36 039 kbps     01:47:32.988    35 944 kbps     01:47:51.882    164 304 bytes   387 448 bytes   01:49:22.264
16              1:50:34.711     0:08:27.089     31 882 kbps     41 044 kbps     01:56:37.949    36 261 kbps     01:53:01.149    36 041 kbps     01:52:56.144    166 220 bytes   476 026 bytes   01:52:44.591
17              1:59:01.801     0:08:11.908     31 819 kbps     40 163 kbps     02:05:37.488    36 071 kbps     02:05:02.953    35 496 kbps     02:05:58.676    165 890 bytes   564 068 bytes   01:59:12.228
18              2:07:13.709     0:07:51.596     33 665 kbps     39 442 kbps     02:10:52.886    36 159 kbps     02:08:03.008    35 901 kbps     02:10:12.554    175 516 bytes   362 899 bytes   02:12:40.869
19              2:15:05.305     0:07:09.512     33 679 kbps     38 752 kbps     02:16:38.440    36 104 kbps     02:17:17.812    35 910 kbps     02:21:53.296    175 589 bytes   411 143 bytes   02:15:35.001
20              2:22:14.817     0:07:38.207     19 491 kbps     37 492 kbps     02:22:21.407    35 975 kbps     02:22:40.593    35 886 kbps     02:22:32.877    101 625 bytes   428 093 bytes   02:28:43.581
STREAM DIAGNOSTICS:
File            PID             Type            Codec           Language                Seconds                 Bitrate                 Bytes           Packets
----            ---             ----            -----           --------                --------------          --------------          -------------   -----
00003.M2TS      4113 (0x1011)   0x1B            AVC                                     8992,859                31 291                  35 174 145 794  191 289 943
00003.M2TS      4352 (0x1100)   0x86            DTS-HD MA       eng (English)           8992,859                4 658                   5 235 727 180   29 856 676
00003.M2TS      4353 (0x1101)   0x81            AC3             tur (Turkish)           8992,859                640                     719 444 480     4 215 495
00003.M2TS      4354 (0x1102)   0x81            AC3             pol (Polish)            8992,859                640                     719 444 480     4 215 495
00003.M2TS      4355 (0x1103)   0x81            AC3             eng (English)           8992,859                224                     251 805 568     1 405 165
00003.M2TS      4356 (0x1104)   0x81            AC3             hun (Hungarian)         8992,859                640                     719 444 480     4 215 495
00003.M2TS      4357 (0x1105)   0x81            AC3             ces (Czech)             8992,859                640                     719 444 480     4 215 495
00003.M2TS      4358 (0x1106)   0x81            AC3             rus (Russian)           8992,859                640                     719 444 480     4 215 495
00003.M2TS      4608 (0x1200)   0x90            PGS             ara (Arabic)            8992,859                18                      19 959 724      120 122
00003.M2TS      4609 (0x1201)   0x90            PGS             bul (Bulgarian)         8992,859                33                      36 732 818      211 157
00003.M2TS      4610 (0x1202)   0x90            PGS             ces (Czech)             8992,859                31                      34 986 074      201 849
00003.M2TS      4611 (0x1203)   0x90            PGS             ell (Greek)             8992,859                32                      35 533 772      202 495
00003.M2TS      4612 (0x1204)   0x90            PGS             est (Estonian)          8992,859                32                      36 011 974      207 417
00003.M2TS      4613 (0x1205)   0x90            PGS             eng (English)           8992,859                41                      46 507 503      264 989
00003.M2TS      4614 (0x1206)   0x90            PGS             heb (Hebrew)            8992,859                25                      28 335 472      165 852
00003.M2TS      4615 (0x1207)   0x90            PGS             hrv (Croatian)          8992,859                32                      35 457 674      204 652
00003.M2TS      4616 (0x1208)   0x90            PGS             isl (Icelandic)         8992,859                34                      37 743 879      216 775
00003.M2TS      4617 (0x1209)   0x90            PGS             lav (Latvian)           8992,859                28                      31 481 973      182 513
00003.M2TS      4618 (0x120A)   0x90            PGS             lit (Lithuanian)        8992,859                34                      38 367 325      220 179
00003.M2TS      4619 (0x120B)   0x90            PGS             hun (Hungarian)         8992,859                31                      34 392 099      198 919
00003.M2TS      4620 (0x120C)   0x90            PGS             pol (Polish)            8992,859                32                      36 261 398      208 894
00003.M2TS      4621 (0x120D)   0x90            PGS             por (Portuguese)        8992,859                37                      42 133 775      241 245
00003.M2TS      4622 (0x120E)   0x90            PGS             rus (Russian)           8992,859                42                      46 944 833      267 584
00003.M2TS      4623 (0x120F)   0x90            PGS             ron (Romanian)          8992,859                34                      37 666 907      216 435
00003.M2TS      4624 (0x1210)   0x90            PGS             slv (Slovenian)         8992,859                29                      32 188 294      186 866
00003.M2TS      4625 (0x1211)   0x90            PGS             slk (Slovak)            8992,859                37                      41 891 955      240 099
00003.M2TS      4626 (0x1212)   0x90            PGS             srp (Serbian)           8992,859                33                      37 544 693      216 139
00003.M2TS      4627 (0x1213)   0x90            PGS             tur (Turkish)           8992,859                36                      40 653 726      232 897
00003.M2TS      4628 (0x1214)   0x90            PGS             ukr (Ukrainian)         8992,859                42                      47 106 873      268 492
00003.M2TS      4629 (0x1215)   0x90            PGS             ces (Czech)             8992,859                0                       93 230          533
00003.M2TS      4630 (0x1216)   0x90            PGS             hun (Hungarian)         8992,859                0                       7 516           48
00003.M2TS      4631 (0x1217)   0x90            PGS             pol (Polish)            8992,859                0                       29 018          171
00003.M2TS      4632 (0x1218)   0x90            PGS             rus (Russian)           8992,859                0                       450 921         2 580
00003.M2TS      4633 (0x1219)   0x90            PGS             tur (Turkish)           8992,859                0                       221 455         1 278
00003.M2TS      4634 (0x121A)   0x90            PGS             eng (English)           8992,859                68                      76 503 742      431 947
<---- END FORUMS PASTE ---->
QUICK SUMMARY:
Disc Title: Трансформеры 2-Месть Падших
Disc Size: 48 183 305 966 bytes
Protection: AACS
BD-Java: Yes
Playlist: 00003.MPLS
Size: 47 796 166 656 bytes
Length: 2:29:53.025
Total Bitrate: 42,52 Mbps
Video: MPEG-4 AVC Video / 31290 kbps / 1080p / 23,976 fps / 16:9 / High Profile 4.1
Audio: English / DTS-HD Master Audio / 5.1 / 48 kHz / 4658 kbps / 24-bit (DTS Core: 5.1 / 48 kHz / 1509 kbps / 24-bit)
Audio: Turkish / Dolby Digital Audio / 5.1 / 48 kHz / 640 kbps / DN -4dB
Audio: Polish / Dolby Digital Audio / 5.1 / 48 kHz / 640 kbps / DN -6dB
Audio: English / Dolby Digital Audio / 2.0 / 48 kHz / 224 kbps / DN -4dB
Audio: Hungarian / Dolby Digital Audio / 5.1 / 48 kHz / 640 kbps / DN -4dB
Audio: Czech / Dolby Digital Audio / 5.1 / 48 kHz / 640 kbps / DN -4dB
Audio: Russian / Dolby Digital Audio / 5.1 / 48 kHz / 640 kbps / DN -4dB
Subtitle: Arabic / 17,756 kbps
Subtitle: Bulgarian / 32,677 kbps
Subtitle: Czech / 31,123 kbps
Subtitle: Greek / 31,610 kbps
Subtitle: Estonian / 32,035 kbps
Subtitle: English / 41,372 kbps
Subtitle: Hebrew / 25,207 kbps
Subtitle: Croatian / 31,542 kbps
Subtitle: Icelandic / 33,576 kbps
Subtitle: Latvian / 28,006 kbps
Subtitle: Lithuanian / 34,131 kbps
Subtitle: Hungarian / 30,594 kbps
Subtitle: Polish / 32,257 kbps
Subtitle: Portuguese / 37,481 kbps
Subtitle: Russian / 41,761 kbps
Subtitle: Romanian / 33,508 kbps
Subtitle: Slovenian / 28,634 kbps
Subtitle: Slovak / 37,266 kbps
Subtitle: Serbian / 33,399 kbps
Subtitle: Turkish / 36,165 kbps
Subtitle: Ukrainian / 41,905 kbps
Subtitle: Czech / 0,083 kbps
Subtitle: Hungarian / 0,007 kbps
Subtitle: Polish / 0,026 kbps
Subtitle: Russian / 0,401 kbps
Subtitle: Turkish / 0,197 kbps
Subtitle: English / 68,056 kbps
[/code]

Скриншоты

     

Трансформеры 3-Тёмная сторона Луны

Трансформеры 3: Тёмная сторона Луны / Transformers: Dark of the MoonГод выпуска: 2011
Страна: США
Жанр: Боевик,Фантастика
Продолжительность: 02:34:23
Перевод: Профессиональный (полное дублирование)
Режиссер: Майкл Бэй / Michael Baye
В ролях: Тайриз Гибсон,Роузи Хантингтон-Уайтли,Патрик Демпси,Кевин Данн,Джули Уайт,Джон Малкович....
Описание: Для наших героев наступили печальные будни: Сэм потерял Микаэлу, правительство выпускает законодательный акт о выселении Автоботов с Земли, а пока Мегатрон скрывается после позорного поражения Фоллена, десептикон Шокуэйв, правитель Кибертрона, готовится нанести визит нашей планете с совсем недобрыми намерениями. Действие заключительной части трилогии на этот раз охватит не только Землю, но и Луну, темная сторона которой хранит не менее темные тайны.

Качество: Blu-Ray
Формат: BDMV
Видео кодек: MPEG-4 AVC
Аудио кодек: Dolby Digital,Dolby TrueHD
Видео: Video: MPEG-4 AVC Video / 27668 kbps / 1080p / 23,976 fps / 16:9 / High Profile 4.1
Аудио:
Audio 1: English / Dolby TrueHD Audio / 7.1 / 48 kHz / 4301 kbps / 24-bit (AC3 Embedded: 5.1 / 48 kHz / 640 kbps / DN -4dB)
Audio 2: Czech / Dolby Digital Audio / 5.1 / 48 kHz / 640 kbps / DN -4dB
Audio 3: Hungarian / Dolby Digital Audio / 5.1 / 48 kHz / 640 kbps / DN -4dB
Audio 4: Polish / Dolby Digital Audio / 5.1 / 48 kHz / 640 kbps / DN -4dB
Audio 5: Russian / Dolby Digital Audio / 5.1 / 48 kHz / 640 kbps / DN -4dB
Audio 6: Thai / Dolby Digital Audio / 5.1 / 48 kHz / 640 kbps / DN -4dB
Audio 7: Turkish / Dolby Digital Audio / 5.1 / 48 kHz / 640 kbps / DN -4dB

BDInfo

Код:
Disc Title:     Трансформеры 3-Тёмная сторона Луны
Disc Size:      47 817 431 971 bytes
Protection:     AACS
BD-Java:        Yes
BDInfo:         0.5.8
Notes:
BDINFO HOME:
  Cinema Squid
    http://www.cinemasquid.com/blu-ray/tools/bdinfo
INCLUDES FORUMS REPORT FOR:
  AVS Forum Blu-ray Audio and Video Specifications Thread
    http://www.avsforum.com/avs-vb/showthread.php?t=1155731
********************
PLAYLIST: 00800.MPLS
********************
<--- BEGIN FORUMS PASTE --->
[code]
                                                                                                                Total   Video
Title                                                           Codec   Length  Movie Size      Disc Size       Bitrate Bitrate Main Audio Track                          Secondary Audio Track
-----                                                           ------  ------- --------------  --------------  ------- ------- ------------------                        ---------------------
00800.MPLS                                                      AVC     2:34:23 47 151 366 144  47 817 431 971  40,72   27,67   Dolby TrueHD 7.1 4301Kbps (48kHz/24-bit)
Код:
DISC INFO:
Disc Title:     Трансформеры 3-Тёмная сторона Луны
Disc Size:      47 817 431 971 bytes
Protection:     AACS
BD-Java:        Yes
BDInfo:         0.5.8
PLAYLIST REPORT:
Name:                   00800.MPLS
Length:                 2:34:23.295 (h:m:s.ms)
Size:                   47 151 366 144 bytes
Total Bitrate:          40,72 Mbps
VIDEO:
Codec                   Bitrate             Description
-----                   -------             -----------
MPEG-4 AVC Video        27668 kbps          1080p / 23,976 fps / 16:9 / High Profile 4.1
AUDIO:
Codec                           Language        Bitrate         Description
-----                           --------        -------         -----------
Dolby TrueHD Audio              English         4301 kbps       7.1 / 48 kHz / 4301 kbps / 24-bit (AC3 Embedded: 5.1 / 48 kHz / 640 kbps / DN -4dB)
Dolby Digital Audio             Czech           640 kbps        5.1 / 48 kHz / 640 kbps / DN -4dB
Dolby Digital Audio             Hungarian       640 kbps        5.1 / 48 kHz / 640 kbps / DN -4dB
Dolby Digital Audio             Polish          640 kbps        5.1 / 48 kHz / 640 kbps / DN -4dB
Dolby Digital Audio             Russian         640 kbps        5.1 / 48 kHz / 640 kbps / DN -4dB
Dolby Digital Audio             Thai            640 kbps        5.1 / 48 kHz / 640 kbps / DN -4dB
Dolby Digital Audio             Turkish         640 kbps        5.1 / 48 kHz / 640 kbps / DN -4dB
SUBTITLES:
Codec                           Language        Bitrate         Description
-----                           --------        -------         -----------
Presentation Graphics           Arabic          19,459 kbps
Presentation Graphics           Indonesian      38,733 kbps
Presentation Graphics           Malay           42,681 kbps
Presentation Graphics           Bulgarian       33,809 kbps
Presentation Graphics           Chinese         27,960 kbps
Presentation Graphics           Czech           33,025 kbps
Presentation Graphics           Greek           36,160 kbps
Presentation Graphics           Estonian        39,153 kbps
Presentation Graphics           English         40,483 kbps
Presentation Graphics           Hebrew          25,343 kbps
Presentation Graphics           Hindi           32,139 kbps
Presentation Graphics           Croatian        33,728 kbps
Presentation Graphics           Icelandic       32,282 kbps
Presentation Graphics           Korean          20,383 kbps
Presentation Graphics           Latvian         38,121 kbps
Presentation Graphics           Lithuanian      33,973 kbps
Presentation Graphics           Hungarian       39,467 kbps
Presentation Graphics           Chinese         27,473 kbps
Presentation Graphics           Polish          29,915 kbps
Presentation Graphics           Portuguese      35,736 kbps
Presentation Graphics           Russian         29,804 kbps
Presentation Graphics           Romanian        32,785 kbps
Presentation Graphics           Chinese         29,556 kbps
Presentation Graphics           Slovenian       29,861 kbps
Presentation Graphics           Slovak          37,512 kbps
Presentation Graphics           Serbian         33,255 kbps
Presentation Graphics           Thai            26,304 kbps
Presentation Graphics           Turkish         34,645 kbps
Presentation Graphics           Ukrainian       39,935 kbps
FILES:
Name            Time In         Length          Size            Total Bitrate
----            -------         ------          ----            -------------
00800.M2TS      0:00:00.000     2:34:23.295     47 151 366 144  40 721
CHAPTERS:
Number          Time In         Length          Avg Video Rate  Max 1-Sec Rate  Max 1-Sec Time  Max 5-Sec Rate  Max 5-Sec Time  Max 10Sec Rate  Max 10Sec Time  Avg Frame Size  Max Frame Size  Max Frame Time
------          -------         ------          --------------  --------------  --------------  --------------  --------------  --------------  --------------  --------------  --------------  --------------
1               0:00:00.000     0:08:52.573     27 290 kbps     36 637 kbps     00:08:44.273    33 849 kbps     00:06:22.131    33 429 kbps     00:05:13.438    142 264 bytes   393 169 bytes   00:03:07.562
2               0:08:52.573     0:05:34.042     28 007 kbps     34 751 kbps     00:10:04.895    33 885 kbps     00:09:43.666    33 575 kbps     00:09:32.446    146 014 bytes   343 661 bytes   00:13:00.946
3               0:14:26.615     0:05:54.312     27 598 kbps     34 688 kbps     00:20:13.170    33 104 kbps     00:20:09.207    30 532 kbps     00:20:04.203    143 885 bytes   318 112 bytes   00:16:08.509
4               0:20:20.928     0:08:27.215     27 727 kbps     35 464 kbps     00:26:31.965    33 876 kbps     00:27:09.461    31 792 kbps     00:26:27.335    144 556 bytes   353 180 bytes   00:28:24.744
5               0:28:48.143     0:07:30.491     27 360 kbps     36 575 kbps     00:36:16.924    33 523 kbps     00:34:40.995    32 708 kbps     00:34:40.495    142 643 bytes   545 536 bytes   00:35:43.432
6               0:36:18.634     0:08:59.914     26 910 kbps     34 886 kbps     00:43:35.654    33 273 kbps     00:40:48.946    31 577 kbps     00:43:33.277    140 297 bytes   305 569 bytes   00:37:42.551
7               0:45:18.549     0:06:34.477     27 848 kbps     35 131 kbps     00:49:58.537    33 983 kbps     00:50:12.592    33 364 kbps     00:50:25.313    145 184 bytes   373 420 bytes   00:49:42.938
8               0:51:53.026     0:04:41.197     27 367 kbps     36 800 kbps     00:56:22.587    30 691 kbps     00:55:34.622    29 199 kbps     00:55:31.619    142 681 bytes   378 735 bytes   00:56:08.698
9               0:56:34.224     0:07:39.083     27 770 kbps     34 226 kbps     00:57:39.456    32 749 kbps     00:56:35.183    30 781 kbps     01:03:50.326    144 780 bytes   374 004 bytes   01:01:32.772
10              1:04:13.307     0:08:43.397     27 752 kbps     36 866 kbps     01:08:05.122    34 150 kbps     01:11:58.272    33 375 kbps     01:07:52.526    144 687 bytes   340 226 bytes   01:04:21.315
11              1:12:56.705     0:06:12.372     27 721 kbps     35 934 kbps     01:18:54.855    33 613 kbps     01:18:50.851    32 276 kbps     01:18:49.599    144 524 bytes   312 645 bytes   01:14:29.506
12              1:19:09.077     0:04:32.313     27 681 kbps     34 146 kbps     01:22:28.652    33 779 kbps     01:22:45.460    33 596 kbps     01:22:28.151    144 315 bytes   299 999 bytes   01:21:38.518
13              1:23:41.391     0:05:03.428     26 642 kbps     34 835 kbps     01:28:17.792    34 002 kbps     01:28:13.788    33 871 kbps     01:24:03.163    138 899 bytes   444 445 bytes   01:27:34.582
14              1:28:44.819     0:06:28.262     27 285 kbps     37 602 kbps     01:35:00.027    33 747 kbps     01:33:34.775    32 736 kbps     01:34:47.765    142 251 bytes   637 014 bytes   01:34:05.681
15              1:35:13.082     0:07:31.075     27 336 kbps     37 484 kbps     01:38:51.926    34 085 kbps     01:40:36.196    33 006 kbps     01:40:35.237    142 516 bytes   445 706 bytes   01:39:52.319
16              1:42:44.158     0:06:28.179     27 081 kbps     37 852 kbps     01:48:19.367    33 983 kbps     01:46:46.024    32 380 kbps     01:45:12.764    141 189 bytes   326 551 bytes   01:42:48.162
17              1:49:12.337     0:07:30.575     27 809 kbps     35 570 kbps     01:50:14.941    33 948 kbps     01:55:27.670    33 431 kbps     01:55:22.790    144 985 bytes   344 015 bytes   01:56:41.411
18              1:56:42.912     0:08:16.204     29 893 kbps     36 408 kbps     01:58:29.102    34 075 kbps     02:04:31.797    33 918 kbps     02:01:57.393    155 849 bytes   380 326 bytes   02:04:28.878
19              2:04:59.116     0:06:30.473     32 322 kbps     37 137 kbps     02:10:34.034    34 539 kbps     02:09:08.907    33 965 kbps     02:05:11.295    168 510 bytes   436 979 bytes   02:07:55.584
20              2:11:29.590     0:07:41.294     32 162 kbps     36 058 kbps     02:13:51.815    34 274 kbps     02:13:47.769    33 805 kbps     02:13:08.855    167 680 bytes   412 443 bytes   02:16:53.330
21              2:19:10.884     0:06:26.636     30 770 kbps     38 095 kbps     02:21:43.620    34 189 kbps     02:21:27.812    33 917 kbps     02:19:34.574    160 420 bytes   420 175 bytes   02:19:16.264
22              2:25:37.520     0:08:45.775     18 377 kbps     36 405 kbps     02:34:18.791    33 244 kbps     02:25:38.354    29 390 kbps     02:25:37.520    95 815 bytes    472 106 bytes   02:31:33.959
STREAM DIAGNOSTICS:
File            PID             Type            Codec           Language                Seconds                 Bitrate                 Bytes           Packets
----            ---             ----            -----           --------                --------------          --------------          -------------   -----
00800.M2TS      4113 (0x1011)   0x1B            AVC                                     9263,129                27 669                  32 037 573 996  174 246 836
00800.M2TS      4352 (0x1100)   0x83            TrueHD          eng (English)           9263,129                4 942                   5 721 806 336   38 498 932
00800.M2TS      4353 (0x1101)   0x81            AC3             ces (Czech)             9263,129                640                     741 063 680     4 342 170
00800.M2TS      4354 (0x1102)   0x81            AC3             hun (Hungarian)         9263,129                640                     741 063 680     4 342 170
00800.M2TS      4355 (0x1103)   0x81            AC3             pol (Polish)            9263,129                640                     741 063 680     4 342 170
00800.M2TS      4356 (0x1104)   0x81            AC3             rus (Russian)           9263,129                640                     741 063 680     4 342 170
00800.M2TS      4357 (0x1105)   0x81            AC3             tha (Thai)              9263,129                640                     741 063 680     4 342 170
00800.M2TS      4358 (0x1106)   0x81            AC3             tur (Turkish)           9263,129                640                     741 063 680     4 342 170
00800.M2TS      4608 (0x1200)   0x90            PGS             ara (Arabic)            9263,129                19                      22 531 426      134 635
00800.M2TS      4609 (0x1201)   0x90            PGS             ind (Indonesian)        9263,129                39                      44 849 317      256 493
00800.M2TS      4610 (0x1202)   0x90            PGS             msa (Malay)             9263,129                43                      49 420 952      282 431
00800.M2TS      4611 (0x1203)   0x90            PGS             bul (Bulgarian)         9263,129                34                      39 147 366      225 447
00800.M2TS      4612 (0x1204)   0x90            PGS             zho (Chinese)           9263,129                28                      32 375 345      188 041
00800.M2TS      4613 (0x1205)   0x90            PGS             ces (Czech)             9263,129                33                      38 240 072      218 535
00800.M2TS      4614 (0x1206)   0x90            PGS             ell (Greek)             9263,129                36                      41 869 695      240 109
00800.M2TS      4615 (0x1207)   0x90            PGS             est (Estonian)          9263,129                39                      45 335 847      260 295
00800.M2TS      4616 (0x1208)   0x90            PGS             eng (English)           9263,129                40                      46 875 525      268 514
00800.M2TS      4617 (0x1209)   0x90            PGS             heb (Hebrew)            9263,129                25                      29 344 759      171 686
00800.M2TS      4618 (0x120A)   0x90            PGS             hin (Hindi)             9263,129                32                      37 214 002      216 112
00800.M2TS      4619 (0x120B)   0x90            PGS             hrv (Croatian)          9263,129                34                      39 053 589      224 545
00800.M2TS      4620 (0x120C)   0x90            PGS             isl (Icelandic)         9263,129                32                      37 380 266      215 396
00800.M2TS      4621 (0x120D)   0x90            PGS             kor (Korean)            9263,129                20                      23 601 322      140 979
00800.M2TS      4622 (0x120E)   0x90            PGS             lav (Latvian)           9263,129                38                      44 140 404      253 779
00800.M2TS      4623 (0x120F)   0x90            PGS             lit (Lithuanian)        9263,129                34                      39 337 983      226 057
00800.M2TS      4624 (0x1210)   0x90            PGS             hun (Hungarian)         9263,129                39                      45 699 632      262 225
00800.M2TS      4625 (0x1211)   0x90            PGS             zho (Chinese)           9263,129                27                      31 811 063      186 860
00800.M2TS      4626 (0x1212)   0x90            PGS             pol (Polish)            9263,129                30                      34 639 448      200 519
00800.M2TS      4627 (0x1213)   0x90            PGS             por (Portuguese)        9263,129                36                      41 378 564      237 222
00800.M2TS      4628 (0x1214)   0x90            PGS             rus (Russian)           9263,129                30                      34 510 952      199 892
00800.M2TS      4629 (0x1215)   0x90            PGS             ron (Romanian)          9263,129                33                      37 962 237      218 783
00800.M2TS      4630 (0x1216)   0x90            PGS             zho (Chinese)           9263,129                30                      34 223 304      198 429
00800.M2TS      4631 (0x1217)   0x90            PGS             slv (Slovenian)         9263,129                30                      34 576 400      200 234
00800.M2TS      4632 (0x1218)   0x90            PGS             slk (Slovak)            9263,129                38                      43 435 573      249 911
00800.M2TS      4633 (0x1219)   0x90            PGS             srp (Serbian)           9263,129                33                      38 506 613      221 597
00800.M2TS      4634 (0x121A)   0x90            PGS             tha (Thai)              9263,129                26                      30 457 965      178 100
00800.M2TS      4635 (0x121B)   0x90            PGS             tur (Turkish)           9263,129                35                      40 115 571      230 404
00800.M2TS      4636 (0x121C)   0x90            PGS             ukr (Ukrainian)         9263,129                40                      46 241 357      265 167
<---- END FORUMS PASTE ---->
QUICK SUMMARY:
Disc Title: Трансформеры 3-Тёмная сторона Луны
Disc Size: 47 817 431 971 bytes
Protection: AACS
BD-Java: Yes
Playlist: 00800.MPLS
Size: 47 151 366 144 bytes
Length: 2:34:23.295
Total Bitrate: 40,72 Mbps
Video: MPEG-4 AVC Video / 27668 kbps / 1080p / 23,976 fps / 16:9 / High Profile 4.1
Audio: English / Dolby TrueHD Audio / 7.1 / 48 kHz / 4301 kbps / 24-bit (AC3 Embedded: 5.1 / 48 kHz / 640 kbps / DN -4dB)
Audio: Czech / Dolby Digital Audio / 5.1 / 48 kHz / 640 kbps / DN -4dB
Audio: Hungarian / Dolby Digital Audio / 5.1 / 48 kHz / 640 kbps / DN -4dB
Audio: Polish / Dolby Digital Audio / 5.1 / 48 kHz / 640 kbps / DN -4dB
Audio: Russian / Dolby Digital Audio / 5.1 / 48 kHz / 640 kbps / DN -4dB
Audio: Thai / Dolby Digital Audio / 5.1 / 48 kHz / 640 kbps / DN -4dB
Audio: Turkish / Dolby Digital Audio / 5.1 / 48 kHz / 640 kbps / DN -4dB
Subtitle: Arabic / 19,459 kbps
Subtitle: Indonesian / 38,733 kbps
Subtitle: Malay / 42,681 kbps
Subtitle: Bulgarian / 33,809 kbps
Subtitle: Chinese / 27,960 kbps
Subtitle: Czech / 33,025 kbps
Subtitle: Greek / 36,160 kbps
Subtitle: Estonian / 39,153 kbps
Subtitle: English / 40,483 kbps
Subtitle: Hebrew / 25,343 kbps
Subtitle: Hindi / 32,139 kbps
Subtitle: Croatian / 33,728 kbps
Subtitle: Icelandic / 32,282 kbps
Subtitle: Korean / 20,383 kbps
Subtitle: Latvian / 38,121 kbps
Subtitle: Lithuanian / 33,973 kbps
Subtitle: Hungarian / 39,467 kbps
Subtitle: Chinese / 27,473 kbps
Subtitle: Polish / 29,915 kbps
Subtitle: Portuguese / 35,736 kbps
Subtitle: Russian / 29,804 kbps
Subtitle: Romanian / 32,785 kbps
Subtitle: Chinese / 29,556 kbps
Subtitle: Slovenian / 29,861 kbps
Subtitle: Slovak / 37,512 kbps
Subtitle: Serbian / 33,255 kbps
Subtitle: Thai / 26,304 kbps
Subtitle: Turkish / 34,645 kbps
Subtitle: Ukrainian / 39,935 kbps
[/code]

Скриншоты

     


Last edited by Стасмэн on 2012-04-11 21:55; edited 1 time in total
Other forum [Profile] [PM]
Display posts from previous:    
Reply to topic

The time now is: Today 19:33

All times are GMT + 3 Hours



You cannot post new topics in this forum
You cannot reply to topics in this forum
You cannot edit your posts in this forum
You cannot delete your posts in this forum
You cannot vote in polls in this forum
You cannot attach files in this forum
You cannot download files in this forum