Today is a free download without charge Download

Нежность / La delicatesse (Давид Фонкинос, Стефан Фонкинос / David Foenkinos, Stephane Foenkinos) [2011, Франция, мелодрама, комедия, DVD9] R5 «Кармен Видео»

Reply to topic
 
Author
Message

Koralina ®

Longevity: 9 years 7 months

Posts: 994

Location: Lithuania

Торрент-статистика

Post 10-Apr-2012 19:52

[Quote]

Нежность / La delicatesse«Всё началось со случайного поцелуя» Русское название: Нежность
Оригинальное название: La delicatesse
Год выхода: 2011
Режиссер: Давид Фонкинос, Стефан Фонкинос / David Foenkinos, Stephane Foenkinos
В ролях: Одри Тоту, Франсуа Дамиенс, Бруно Тодескини, Мелани Бернье, Жозефин де Мо, Пио Мармай, Моник Шометт, Марк Китти, Александр Павлофф, Виттория Сконьямиль
Роли дублировали: Денис Беспалый, Владимир Антоник, Вероника Саркисова
Страна производства: Франция
Продолжительность: 108 мин. / 01:48
Продюсер: Ксавьер Риго, Марк-Антуан Роберт, Андре Логи
Сценарий: Давид Фонкинос
Мировая премьера: 8 ноября 2011
Российская премьера: 1 марта 2012, «Каравелла DDC»
Дата выхода DVD: 11 апреля 2012, «Кармен Видео»
Дата выхода Blu-Ray: 11 апреля 2012, «Кармен Видео»
Жанр: мелодрама, комедия
Перевод: Профессиональный (дублированный) [Лицензия]
Cубтитры: русские
Описание: В один прекрасный день сказочно обворожительная Натали целует молодого коллегу Маркуса. Без особых на то причин, просто так. И даже не придает этому никакого значения. Но Маркус ошеломлен: случайный поцелуй перевернул его жизнь! Теперь он не может думать ни о ком, кроме Натали. Молодому человеку предстоит завоевать сердце коллеги, которая его почти не замечает
Рейтинг MPAA: PG-13 - Детям до 13 лет просмотр не желателен
Рейтинг IMDB:
Рейтинг Kinopoisk:

Качество: DVD9 R5
Формат: DVD-Video
Видео кодек: MPEG2
Аудио кодек: AC3
Видео: PAL 16:9 (720x576(0.609)) MPEG Video, 25,000 кадр/сек, 6310 Кбит/сек
Аудио #1: Russian (Dolby AC3, 6 ch) 384 Кбит/сек, 48,0 КГц
Аудио #2: Russian (Dolby AC3, 2 ch) 192 Кбит/сек, 48,0 КГц

DVDInfo

Title:
Size: 7.06 Gb ( 7 401 912 KBytes ) - DVD-9
Enabled regions: 1, 2, 3, 4, 5, 6, 7, 8
VTS_01 :
Play Length: 01:44:37
Video: PAL 16:9 (720x576) VBR, Auto Pan&Scan
Audio:
Russian (Dolby AC3, 6 ch)
Russian (Dolby AC3, 2 ch)
Subtitles:
Russian
VTS_02 :
Play Length: 00:00:05+00:00:13
Video: PAL 16:9 (720x576) VBR, Auto Pan&Scan
Audio:
Russian (Dolby AC3, 6 ch)
VTS_03 :
Play Length: 00:01:28
Video: PAL 16:9 (720x576) VBR, Auto Pan&Scan
Audio:
Russian (Dolby AC3, 2 ch)
VTS_04 :
Play Length: 00:01:54+00:09:46+00:24:57+00:00:43
Video: PAL 16:9 (720x576) VBR, Auto Pan&Scan
Audio:
Russian (Dolby AC3, 2 ch)
Menu Video:
PAL 4:3 (720x576) VBR
Auto Pan&Scan, Auto Letterboxed
Menu Russian Language Unit :
Root Menu
Angle menu
Chapter (PTT) Menu

MediaInfo

Общее
Полное имя : J:\Новинки 2012\Nezhnost.2011.DVD9\VIDEO_TS\VTS_01_2.VOB
Формат : MPEG-PS
Размер файла : 1024 Мбайт
Продолжительность : 20 м.
Режим общего битрейта : Переменный
Общий поток : 7026 Кбит/сек
Видео
Идентификатор : 224 (0xE0)
Формат : MPEG Video
Версия формата : Version 2
Профиль формата : [email protected]
Параметр BVOP формата : Да
Параметр матрицы формата : Выборочная
Параметр GOP формата : M=3, N=12
Продолжительность : 20 м.
Вид битрейта : Переменный
Битрейт : 6310 Кбит/сек
Максимальный битрейт : 8500 Кбит/сек
Ширина : 720 пикселей
Высота : 576 пикселей
Соотношение сторон : 16:9
Частота кадров : 25,000 кадров/сек
Стандарт вещания : PAL
Цветовое пространство : YUV
Субдискретизация насыщенности : 4:2:0
Битовая глубина : 8 бит
Тип развёртки : Чересстрочная
Порядок развёртки : Верхнее поле первое
Метод сжатия : С потерями
Бит/(Пиксели*Кадры) : 0.609
Размер потока : 919 Мбайт (90%)
Основные цвета : BT.470-2 System B, BT.470-2 System G
Характеристики трансфера : BT.470-2 System B, BT.470-2 System G
Коэффициенты матрицы : SMPTE 170M
Аудио #1
Идентификатор : 189 (0xBD)-128 (0x80)
Формат : AC-3
Формат/Информация : Audio Coding 3
Расширение режима : CM (complete main)
Режим смешивания : DVD-Video
Продолжительность : 20 м.
Вид битрейта : Постоянный
Битрейт : 384 Кбит/сек
Каналы : 6 каналов
Расположение каналов : Front: L C R, Side: L R, LFE
Частота : 48,0 КГц
Битовая глубина : 16 бит
Метод сжатия : С потерями
Задержка видео : -640 мс.
Размер потока : 56,0 Мбайт (5%)
Аудио #2
Идентификатор : 189 (0xBD)-129 (0x81)
Формат : AC-3
Формат/Информация : Audio Coding 3
Расширение режима : CM (complete main)
Режим смешивания : DVD-Video
Продолжительность : 20 м.
Вид битрейта : Постоянный
Битрейт : 192 Кбит/сек
Каналы : 2 канала
Расположение каналов : Front: L R
Частота : 48,0 КГц
Битовая глубина : 16 бит
Метод сжатия : С потерями
Задержка видео : -640 мс.
Размер потока : 28,0 Мбайт (3%)
Текст
Идентификатор : 189 (0xBD)-32 (0x20)
Формат : RLE
Формат/Информация : Run-length encoding
Режим смешивания : DVD-Video

Скриншоты меню

       

Скриншоты фильма

               

Скриншоты доп. материалов

       

_________________
Other forum [Profile] [PM]
Display posts from previous:    
Reply to topic

The time now is: Today 09:55

All times are GMT + 3 Hours



You cannot post new topics in this forum
You cannot reply to topics in this forum
You cannot edit your posts in this forum
You cannot delete your posts in this forum
You cannot vote in polls in this forum
You cannot attach files in this forum
You cannot download files in this forum