Today is a free download without charge Download

Орки / Orcs! (Джеймс МакФерсон / James MacPherson) [2011, США, ужасы, фэнтези, боевик, комедия, DVD5] R5 «Lizard Cinema Trade»

Reply to topic
 
Author
Message

Koralina ®

Longevity: 9 years 7 months

Posts: 994

Location: Lithuania

Торрент-статистика

Post 10-Apr-2012 11:01

[Quote]

Орки / Orcs!«They Will Eat Your Face Off.» Русское название: Орки
Оригинальное название: Orcs!
Год выхода: 2011
Режиссер: Эндрю Блэк, Джеймс МакФерсон
В ролях: Майкл Тодд Беренс, Майкл Беренс, Остин М. Крэйг, Стэн Фергюсон, Ренни Ричмонд, Шон Хэммонд, Барта Хейнер, Адам Джонсон, Брэд Джонсон, Джефф Киркэ
Страна производства: США
Продолжительность: 78 мин. / 01:18
Продюсер: Джейсон Фэллер, Кинан Гриффин, Бен Карсон
Сценарий: Энн К. Блэк, Джейсон Фэллер, Кинан Гриффин
Премьера в мире: 6 июня 2011
Дата выхода DVD: 3 апреля 2012, «Lizard Cinema Trade»
Перевод: Профессиональный (многоголосый закадровый) [Лицензия]
Cубтитры: русские
Оригинальная аудиодорожка: английский
Жанр: ужасы, фэнтези, боевик, комедия
Описание: Тысячи лет назад орки, находящиеся на грани вымирания после войн с людьми, скрылись в самых глубоких пещерах. Человечество очень быстро забыло об их существовании, оставив упоминание об орках только в старинных сказаниях. Но они выжили и все эти века, армия древних воителей готовилась к кровопролитной войне, в которой погибнут все люди, чтобы новая раса воцарилась на планете! И вот пришел день, когда орда орков вырвалась на свободу
Рейтинг IMDB:
Рейтинг Kinopoisk:
Качество: DVD5 R5
Формат: DVD-Video
Видео кодек: MPEG2
Аудио кодек: AC3
Видео: PAL 16:9 (720x576(0.580)) MPEG Video, 25,000 кадр/сек, 6011 Кбит/сек
Аудио #1: Russian (Dolby AC3, 6 ch) 384 Кбит/сек, 48,0 КГц
Аудио #2: Russian (Dolby AC3, 2 ch) 192 Кбит/сек, 48,0 КГц
Аудио #3: English (Dolby AC3, 2 ch) 192 Кбит/сек, 48,0 КГц

DVDInfo

Title:
Size: 3.53 Gb ( 3 701 630 KBytes ) - DVD-5
Enabled regions: 1, 2, 3, 4, 5, 6, 7, 8
VTS_01 :
Play Length: 00:00:20
Video: PAL 4:3 (720x576) VBR
Audio:
Russian (Dolby AC3, 2 ch)
VTS_02 :
Play Length: 01:17:04
Video: PAL 16:9 (720x576) VBR, Auto Pan&Scan, Auto Letterboxed
Audio:
Russian (Dolby AC3, 6 ch)
Russian (Dolby AC3, 2 ch)
English (Dolby AC3, 2 ch)
Subtitles:
Russian
Menu Video:
PAL 4:3 (720x576) VBR
Menu English Language Unit :
Root Menu
Chapter (PTT) Menu
Subpicture Menu
Audio Menu

MediaInfo

Общее
Полное имя : J:\Новинки 2012\Orki.2011.DVD5\VIDEO_TS\VTS_02_1.VOB
Формат : MPEG-PS
Размер файла : 1024 Мбайт
Продолжительность : 20 м.
Режим общего битрейта : Переменный
Общий поток : 6917 Кбит/сек
Видео
Идентификатор : 224 (0xE0)
Формат : MPEG Video
Версия формата : Version 2
Профиль формата : [email protected]
Параметр BVOP формата : Да
Параметр матрицы формата : Выборочная
Параметр GOP формата : M=3, N=12
Продолжительность : 20 м.
Вид битрейта : Переменный
Битрейт : 6011 Кбит/сек
Максимальный битрейт : 8500 Кбит/сек
Ширина : 720 пикселей
Высота : 576 пикселей
Соотношение сторон : 16:9
Частота кадров : 25,000 кадров/сек
Стандарт вещания : PAL
Цветовое пространство : YUV
Субдискретизация насыщенности : 4:2:0
Битовая глубина : 8 бит
Тип развёртки : Чересстрочная
Порядок развёртки : Верхнее поле первое
Метод сжатия : С потерями
Бит/(Пиксели*Кадры) : 0.580
Размер потока : 890 Мбайт (87%)
Основные цвета : BT.470-2 System B, BT.470-2 System G
Характеристики трансфера : BT.470-2 System B, BT.470-2 System G
Коэффициенты матрицы : SMPTE 170M
Аудио #1
Идентификатор : 189 (0xBD)-128 (0x80)
Формат : AC-3
Формат/Информация : Audio Coding 3
Расширение режима : CM (complete main)
Режим смешивания : DVD-Video
Продолжительность : 20 м.
Вид битрейта : Постоянный
Битрейт : 384 Кбит/сек
Каналы : 6 каналов
Расположение каналов : Front: L C R, Side: L R, LFE
Частота : 48,0 КГц
Битовая глубина : 16 бит
Метод сжатия : С потерями
Размер потока : 56,8 Мбайт (6%)
Аудио #2
Идентификатор : 189 (0xBD)-129 (0x81)
Формат : AC-3
Формат/Информация : Audio Coding 3
Расширение режима : CM (complete main)
Режим смешивания : DVD-Video
Продолжительность : 20 м.
Вид битрейта : Постоянный
Битрейт : 192 Кбит/сек
Каналы : 2 канала
Расположение каналов : Front: L R
Частота : 48,0 КГц
Битовая глубина : 16 бит
Метод сжатия : С потерями
Размер потока : 28,4 Мбайт (3%)
Аудио #3
Идентификатор : 189 (0xBD)-130 (0x82)
Формат : AC-3
Формат/Информация : Audio Coding 3
Расширение режима : CM (complete main)
Режим смешивания : DVD-Video
Продолжительность : 20 м.
Вид битрейта : Постоянный
Битрейт : 192 Кбит/сек
Каналы : 2 канала
Расположение каналов : Front: L R
Частота : 48,0 КГц
Битовая глубина : 16 бит
Метод сжатия : С потерями
Размер потока : 28,4 Мбайт (3%)
Текст
Идентификатор : 189 (0xBD)-32 (0x20)
Формат : RLE
Формат/Информация : Run-length encoding
Режим смешивания : DVD-Video
Продолжительность : 20 м.
Задержка видео : 640 мс.

Скриншоты меню

     

Скриншоты фильма

               

_________________
Other forum [Profile] [PM]
Display posts from previous:    
Reply to topic

The time now is: Today 11:06

All times are GMT + 3 Hours



You cannot post new topics in this forum
You cannot reply to topics in this forum
You cannot edit your posts in this forum
You cannot delete your posts in this forum
You cannot vote in polls in this forum
You cannot attach files in this forum
You cannot download files in this forum