Today is a free download without charge Download

12 месяцев. Новая сказка (Денис Елеонский) [2015, Россия, фэнтези, сказка, WEB-DL 720p] Original Rus

Reply to topic
 
Author
Message

Omen ®

Longevity: 8 years 10 months

Posts: 181086

Торрент-статистика

Post 13-Apr-2015 15:14

[Quote]

12 месяцев. Новая сказка
Страна: Россия
Жанр: Фэнтези, сказка
Год выпуска: 2015
Продолжительность: 01:24:01
Перевод:Не требуется
Cубтитры: нет
Оригинальная аудиодорожка: русский
Режиссер: Денис Елеонский
В ролях: Ольга Налётова, Илья Бутковский, Евгений Воскресенский, Юлия Такшина, Марина Иванова, Денис Ясик, Антон Юрьев, Анастасия Мельникова, Дмитрий Гогу, Богдан Ступка.
Описание: Девочка из нашего времени попадает в сказочный мир. Среди зимы она должна принести из леса букет подснежников, чтобы наступил Новый Год, который решил отменить злой королевский советник. И только тогда она вернется к родителям.
Сэмпл: http://multi-up.com/1043287
Тип релиза: WEB-DL 720p
Контейнер: MKV
Видео: MPEG4 Video (H264) 960 x 570p, ~ 3826 kbps, 25 fps, 0.280 bit/pixel
Аудио: AC-3, 6 канала, 48,0 КГц, ~384 kbps iTunes

M.I

Общее
Уникальный идентификатор : 252140640967268635050508123249132788090 (0xBDB085646C524B3E9DC705F9F315597A)
Полное имя : D:\12 месяцев\12.Mesyatsev.Novaya.Skazka.720p.WEB-DL.Rus.HDCLUB.mkv
Формат : Matroska
Версия формата : Version 2
Размер файла : 2,52 Гбайт
Продолжительность : 1 ч. 24 м.
Общий поток : 4296 Кбит/сек
Название фильма : 12 Mesyatsev. Novaya Skazka (2015) - Release for HDCLUB
Дата кодирования : UTC 2015-04-11 18:09:19
Программа кодирования : mkvmerge v3.4.0 ('Rapunzel') built on May 15 2010 09:38:20
Библиотека кодирования : libebml v0.8.0 + libmatroska v0.9.0
Видео
Идентификатор : 1
Формат : AVC
Формат/Информация : Advanced Video Codec
Профиль формата : [email protected]
Параметр CABAC формата : Нет
Параметр ReFrames формата : 2 кадра
Идентификатор кодека : V_MPEG4/ISO/AVC
Продолжительность : 1 ч. 24 м.
Битрейт : 3826 Кбит/сек
Ширина : 960 пикселей
Высота : 570 пикселей
Соотношение сторон : 2,25:1
Режим частоты кадров : Постоянный
Частота кадров : 25,000 кадров/сек
Цветовое пространство : YUV
Субдискретизация насыщенности : 4:2:0
Битовая глубина : 8 бит
Тип развёртки : Прогрессивная
Бит/(Пиксели*Кадры) : 0.280
Размер потока : 2,25 Гбайт (89%)
Заголовок : 12 Mesyatsev. Novaya Skazka (2015) - Release for HDCLUB
Язык : Russian
Default : Да
Forced : Нет
Основные цвета : BT.709
Характеристики трансфера : BT.709
Коэффициенты матрицы : BT.709
colour_range : Limited
Аудио
Идентификатор : 2
Формат : AC-3
Формат/Информация : Audio Coding 3
Расширение режима : CM (complete main)
Параметр Endianness формата : Big
Идентификатор кодека : A_AC3
Продолжительность : 1 ч. 24 м.
Вид битрейта : Постоянный
Битрейт : 384 Кбит/сек
Каналы : 6 каналов
Расположение каналов : Front: L C R, Side: L R, LFE
Частота : 48,0 КГц
Битовая глубина : 16 бит
Метод сжатия : С потерями
Размер потока : 231 Мбайт (9%)
Заголовок : AC3 5.1 @ 384 kbps
Язык : Russian
Default : Да
Forced : Нет
Меню
00:00:00.000 : en:1
00:05:25.000 : en:2
00:10:09.000 : en:3
00:16:15.000 : en:4
00:22:40.000 : en:5
00:27:49.000 : en:6
00:33:15.000 : en:7
00:38:57.000 : en:8
00:44:23.000 : en:9
00:49:47.000 : en:10
00:55:37.000 : en:11
01:01:01.000 : en:12
01:05:23.000 : en:13
01:09:59.000 : en:14
01:15:07.000 : en:15
01:19:07.000 : en:16

Скриншоты

Other forum [Profile] [PM]
Display posts from previous:    
Reply to topic

The time now is: Today 13:35

All times are GMT + 3 Hours



You cannot post new topics in this forum
You cannot reply to topics in this forum
You cannot edit your posts in this forum
You cannot delete your posts in this forum
You cannot vote in polls in this forum
You cannot attach files in this forum
You cannot download files in this forum