Today is a free download without charge Download

Закон желания / La ley del deseo [ Педро Альмодовар / Pedro Almodovar (1987) драма, мелодрама, комедия , BDRip 720p ]

Reply to topic
 
Author
Message

Delia ®

Gender:

Longevity: 10 years

Posts: 1821

Торрент-статистика

Post 08-Apr-2012 10:10

[Quote]

Закон желания / La ley del deseo--
Год выпуска: 1987
Страна: Испания
Жанр: драма, мелодрама, комедия, ...
Продолжительность: 01:41:21
Перевод: Профессиональный (многоголосый закадровый)
Субтитры: Russian (UTF-8), Spanish (UTF-8)
Режиссер: Педро Альмодовар
Сценарий: Педро Альмодовар
Продюсер: Агустин Альмодовар, Мигель Анхель Перез Кампос
Оператор: Анхел Луис Фернандес
Композитор: -
Художник: Хавьер Фернандес, Хосе Мария Де Коссио, Рамон Мойя
Монтаж: Хосе Салседо- В ролях: Эусебио Понсела (Eusebio Poncela), Кармен Маура (Carmen Maura), Антонио Бандерас (Antonio Banderas), Мигель Молина (Miguel Molina), Фернандо Гильен (Fernando Guillen), Мануэла Веласко (Manuela Velasco), Начо Мартинес (Nacho Martinez), Бибиана Фернандес (Bibiana Fernandez), Хельга Лине (Helga Line), Херман Кобос (German Cobos), Фернандо Гильен Куэрво (Fernando Guillen Cuervo), Марта Фернандес Муро (Marta Fernandez Muro), Лупе Баррадо (Lupe Barrado), Альфонсо Вальехо (Alfonso Vallejo), Маручи Леон (Maruchi Leon), Хосе Мануэль Белло (Jose Manuel Bello), Агустин Альмодовар (Agustin Almodovar), Росси де Пальма (Rossy de Palma), Хосе Рамон Пардо (Jose Ramon Pardo), Juan A. Granja
Описание: Сюжет построен вокруг убийства на почве страсти. То, что это любовь гомосексуалистов, сути не меняет. Любовь сводит людей с ума и толкает на преступление, оставаясь неподсудной. Молодой любовник известного кинорежиссера убивает соперника — полиция ведет следствие&3;-Премьера (мир): 7 февраля 1987, ...
Релиз на DVD: 27 ноября 2008, «CP-Digital», ...
Рейтинг MPAA: -- --Качество: BDRip
Формат: MKV
Видео кодек: H.264 (AVC)
Аудио кодеk: AC3
Видео: 1280x640 (2.000:1), 24.000 fps, AVC, 6 720 Kbps
Аудио: AC3, 448 Kbps, 48.0 KHz, 3 ch RUS , MVO , R5, Кармен Видео
Аудио #2: AC3, 448 Kbps, 48.0 KHz, 6 ch RUS , MVO , R5, CP-Digital
Аудио #3: AC3, 192 Kbps, 48.0 KHz, 1 ch RUS , VO , Дьяконов
Аудио #4: AC3, 448 Kbps, 48.0 KHz, 3 ch SPA

МедиаИнфо

Код:
General
Complete name                    : La Ley del Deseo(1987)BDRip720p.mkv
Format                           : Matroska
File size                        : 5.85 GiB
Duration                         : 1h 41mn
Overall bit rate                 : 8 258 Kbps
Encoded date                     : UTC 2012-04-08 06:03:15
Writing application              : mkvmerge v5.5.0 ('Healer') built on Apr  6 2012 21:43:24
Writing library                  : libebml v1.2.3 + libmatroska v1.3.0
Video
ID                               : 1
Format                           : AVC
Format/Info                      : Advanced Video Codec
Format profile                   : [email protected]
Format settings, CABAC           : Yes
Format settings, ReFrames        : 10 frames
Format settings, GOP             : M=1, N=2
Muxing mode                      : Container [email protected]
Codec ID                         : V_MPEG4/ISO/AVC
Duration                         : 1h 41mn
Bit rate                         : 6 720 Kbps
Width                            : 1 280 pixels
Height                           : 640 pixels
Display aspect ratio             : 2.000
Frame rate                       : 24.000 fps
Color space                      : YUV
Chroma subsampling               : 4:2:0
Bit depth                        : 8 bits
Scan type                        : Progressive
Bits/(Pixel*Frame)               : 0.342
Stream size                      : 4.64 GiB (79%)
Writing library                  : x264 core 122 r2184 5c85e0a
Encoding settings                : cabac=1 / ref=10 / deblock=1:-3:-2 / analyse=0x3:0x113 / me=umh / subme=10 / psy=1 / psy_rd=1.00:0.15 / mixed_ref=1 / me_range=48 / chroma_me=1 / trellis=2 / 8x8dct=1 / cqm=0 / deadzone=21,11 / fast_pskip=0 / chroma_qp_offset=-3 / threads=6 / sliced_threads=0 / nr=0 / decimate=1 / interlaced=0 / bluray_compat=0 / constrained_intra=0 / bframes=9 / b_pyramid=2 / b_adapt=2 / b_bias=0 / direct=3 / weightb=1 / open_gop=0 / weightp=2 / keyint=240 / keyint_min=23 / scenecut=40 / intra_refresh=0 / rc=2pass / mbtree=0 / bitrate=6720 / ratetol=1.0 / qcomp=0.70 / qpmin=0 / qpmax=69 / qpstep=4 / cplxblur=20.0 / qblur=0.5 / ip_ratio=1.40 / pb_ratio=1.30 / aq=2:0.90
Color primaries                  : BT.709-5, BT.1361, IEC 61966-2-4, SMPTE RP177
Transfer characteristics         : BT.709-5, BT.1361
Matrix coefficients              : BT.709-5, BT.1361, IEC 61966-2-4 709, SMPTE RP177
Audio #1
ID                               : 2
Format                           : AC-3
Format/Info                      : Audio Coding 3
Mode extension                   : CM (complete main)
Codec ID                         : A_AC3
Duration                         : 1h 41mn
Bit rate mode                    : Constant
Bit rate                         : 448 Kbps
Channel(s)                       : 3 channels
Channel positions                : Front: L R,   Side: C
Sampling rate                    : 48.0 KHz
Bit depth                        : 16 bits
Stream size                      : 325 MiB (5%)
Title                            : R5, Кармен Видео
Language                         : Russian
Audio #2
ID                               : 3
Format                           : AC-3
Format/Info                      : Audio Coding 3
Mode extension                   : CM (complete main)
Codec ID                         : A_AC3
Duration                         : 1h 41mn
Bit rate mode                    : Constant
Bit rate                         : 448 Kbps
Channel(s)                       : 6 channels
Channel positions                : Front: L C R, Side: L R, LFE
Sampling rate                    : 48.0 KHz
Bit depth                        : 16 bits
Stream size                      : 325 MiB (5%)
Title                            : R5, CP-Digital
Language                         : Russian
Audio #3
ID                               : 4
Format                           : AC-3
Format/Info                      : Audio Coding 3
Mode extension                   : CM (complete main)
Codec ID                         : A_AC3
Duration                         : 1h 41mn
Bit rate mode                    : Constant
Bit rate                         : 192 Kbps
Channel(s)                       : 1 channel
Channel positions                : Front: C
Sampling rate                    : 48.0 KHz
Bit depth                        : 16 bits
Stream size                      : 139 MiB (2%)
Title                            : Дьяконов
Language                         : Russian
Audio #4
ID                               : 5
Format                           : AC-3
Format/Info                      : Audio Coding 3
Mode extension                   : CM (complete main)
Codec ID                         : A_AC3
Duration                         : 1h 41mn
Bit rate mode                    : Constant
Bit rate                         : 448 Kbps
Channel(s)                       : 3 channels
Channel positions                : Front: L R,   Side: C
Sampling rate                    : 48.0 KHz
Bit depth                        : 16 bits
Stream size                      : 325 MiB (5%)
Language                         : Spanish
Text #1
ID                               : 6
Format                           : UTF-8
Codec ID                         : S_TEXT/UTF8
Codec ID/Info                    : UTF-8 Plain Text
Language                         : Russian
Text #2
ID                               : 7
Format                           : UTF-8
Codec ID                         : S_TEXT/UTF8
Codec ID/Info                    : UTF-8 Plain Text
Language                         : Spanish
Menu
00:00:00.000                     : en:Chapter 01
00:14:01.083                     : en:Chapter 02
00:24:41.000                     : en:Chapter 03
00:38:32.916                     : en:Chapter 04
00:51:42.875                     : en:Chapter 05
01:04:14.625                     : en:Chapter 06
01:16:56.125                     : en:Chapter 07
01:30:04.875                     : en:Chapter 08


Скриншоты

     
     

_________________
Человек – это канат, натянутый между животным и сверхчеловеком, – канат над пропастью.
В человеке ценно то, что он мост, а не цель. Фридрих Ницше
Other forum [Profile] [PM]
Similar theme
Forum Topic Author Torrent Replies Last Post
./templates/default/images/folder_dl.gif Справочники, энциклопедии и словари Лев Мильяненков | По ту сторону закона (1992) [DJVU] moralis
1 | 0

0 | 1842

3

2016-12-17 23:37
moralis Latest
Display posts from previous:    
Reply to topic

The time now is: Today 04:51

All times are GMT + 3 Hours



You cannot post new topics in this forum
You cannot reply to topics in this forum
You cannot edit your posts in this forum
You cannot delete your posts in this forum
You cannot vote in polls in this forum
You cannot attach files in this forum
You cannot download files in this forum