Today is a free download without charge Download

Огнеупорный / Fireproof [ Алекс Кендрик (2008) драма, BDRip 720p ]

Reply to topic
 
Author
Message

Delia ®

Gender:

Longevity: 10 years

Posts: 1821

Торрент-статистика

Post 07-Apr-2012 09:16

[Quote]

Огнеупорный / Fireproof«Never Leave Your Partner Behind.»--
Год выпуска: 2008
Страна: США
Жанр: драма, ...
Продолжительность: 01:58:22
Перевод: Профессиональный (многоголосый закадровый)
Субтитры: Английские (srt)
Режиссер: Алекс Кендрик
Сценарий: Алекс Кендрик, Стефен Кендрик
Продюсер: Алекс Кендрик, Стефен Кендрик, Michael Catt, ...
Оператор: Боб Скотт
Композитор: Марк Уиллард
Монтаж: Билл Эбел- В ролях: Кирк Камерон (Kirk Cameron), Эрин Бети (Erin Bethea), Кен Бевел (Ken Bevel), Stephen Dervan, Эрик Янг (Eric Young), Джейсон МакЛеод (Jason McLeod), Harris Malcom, Phyllis Malcom, Перри Ревелл (Perry Revell), Стефани Макулински (Stephanie Makulinski), Рената Уильямс (Renata Williams), Дван Уильямс (Dwan Williams), Amberly Marquard, Джой Джойнер (Joy Joiner), Danielle Brooks, Ребека Уиллард (Rebekah Willard), Рон Роу (Ron Rowe), Faye Sharber, Рэй Вуд (Ray Wood), Сью Холт (Sue Holt)
Описание: Заходя в горящий дом, капитан Калеб Холт действует по-старому правилу пожарных: «Никогда не оставляй товарища в беде». Приходя домой, где его ждёт жена, чувства к которой давно угасло, он живёт по своим собственным правилам. На работе Калеб всегда спасает других, но как ему спасти свой брак?-Рейтинг MPAA: -- --Качество: BDRip720р
Формат: MKV
Видео кодек: H.264 (AVC)
Аудио кодеk: AC3
Видео: 1280x692 (1.850:1), 23.976 fps, AVC, 4 428 Kbps
Аудио: AC3, 448 Kbps, 48.0 KHz, 6 ch RUS MVO
Аудио #2: AC3, 384 Kbps, 48.0 KHz, 6 ch ENG

МедиаИнфо

Код:
General
Complete name                    : Fireproof (2008)BDrip72p-F.HD.mkv
Format                           : Matroska
File size                        : 4.34 GiB
Duration                         : 1h 58mn
Overall bit rate                 : 5 254 Kbps
Encoded date                     : UTC 2012-04-06 20:59:20
Writing application              : mkvmerge v5.4.0 ('Piper') built on Mar 10 2012 13:34:39
Writing library                  : libebml v1.2.3 + libmatroska v1.3.0
Video
ID                               : 1
Format                           : AVC
Format/Info                      : Advanced Video Codec
Format profile                   : [email protected]
Format settings, CABAC           : Yes
Format settings, ReFrames        : 9 frames
Format settings, GOP             : M=9, N=32
Muxing mode                      : Container [email protected]
Codec ID                         : V_MPEG4/ISO/AVC
Duration                         : 1h 58mn
Bit rate                         : 4 428 Kbps
Width                            : 1 280 pixels
Height                           : 692 pixels
Display aspect ratio             : 1.850
Frame rate                       : 23.976 fps
Color space                      : YUV
Chroma subsampling               : 4:2:0
Bit depth                        : 8 bits
Scan type                        : Progressive
Bits/(Pixel*Frame)               : 0.209
Stream size                      : 3.57 GiB (82%)
Title                            : FREEISLAND
Writing library                  : x264 core 122 r2184 5c85e0a
Encoding settings                : cabac=1 / ref=9 / deblock=1:-3:-2 / analyse=0x3:0x113 / me=umh / subme=10 / psy=1 / psy_rd=1.00:0.15 / mixed_ref=1 / me_range=48 / chroma_me=1 / trellis=2 / 8x8dct=1 / cqm=0 / deadzone=21,11 / fast_pskip=0 / chroma_qp_offset=-3 / threads=6 / sliced_threads=0 / nr=0 / decimate=1 / interlaced=0 / bluray_compat=0 / constrained_intra=0 / bframes=8 / b_pyramid=2 / b_adapt=2 / b_bias=0 / direct=3 / weightb=1 / open_gop=0 / weightp=2 / keyint=240 / keyint_min=23 / scenecut=40 / intra_refresh=0 / rc=2pass / mbtree=0 / bitrate=4428 / ratetol=1.0 / qcomp=0.70 / qpmin=0 / qpmax=69 / qpstep=4 / cplxblur=20.0 / qblur=0.5 / ip_ratio=1.40 / pb_ratio=1.30 / aq=2:0.90
Color primaries                  : BT.709-5, BT.1361, IEC 61966-2-4, SMPTE RP177
Transfer characteristics         : BT.709-5, BT.1361
Matrix coefficients              : BT.709-5, BT.1361, IEC 61966-2-4 709, SMPTE RP177
Audio #1
ID                               : 2
Format                           : AC-3
Format/Info                      : Audio Coding 3
Mode extension                   : CM (complete main)
Codec ID                         : A_AC3
Duration                         : 1h 58mn
Bit rate mode                    : Constant
Bit rate                         : 448 Kbps
Channel(s)                       : 6 channels
Channel positions                : Front: L C R, Side: L R, LFE
Sampling rate                    : 48.0 KHz
Bit depth                        : 16 bits
Stream size                      : 379 MiB (9%)
Language                         : Russian
Audio #2
ID                               : 3
Format                           : AC-3
Format/Info                      : Audio Coding 3
Mode extension                   : CM (complete main)
Codec ID                         : A_AC3
Duration                         : 1h 58mn
Bit rate mode                    : Constant
Bit rate                         : 384 Kbps
Channel(s)                       : 6 channels
Channel positions                : Front: L C R, Side: L R, LFE
Sampling rate                    : 48.0 KHz
Bit depth                        : 16 bits
Stream size                      : 325 MiB (7%)
Text
ID                               : 4
Format                           : UTF-8
Codec ID                         : S_TEXT/UTF8
Codec ID/Info                    : UTF-8 Plain Text
Menu
00:00:00.000                     : en:Chapter 01
00:08:48.945                     : en:Chapter 02
00:16:55.055                     : en:Chapter 03
00:28:18.655                     : en:Chapter 04
00:42:21.372                     : en:Chapter 05
01:00:58.321                     : en:Chapter 06
01:13:21.313                     : en:Chapter 07
01:29:09.385                     : en:Chapter 08
01:39:59.493                     : en:Chapter 09
01:49:55.797                     : en:Chapter 10

Знаете ли Вы, что...

» Кирк Камерон отказался от гонорара за съемки в фильме и попросил перевести его как пожертвование для своего служения.
» В сцене фильма, где главный герой целует свою жену, кинопроизводители вынуждены были переодеть реальную жену Камерона – Челси Нобил (Chelsea Noble), как жену героя и затушевать сцену тенью, для того, чтобы разница была не столь очевидна на экране. Все остальные эпизоды жены играла актриса Эрин Бети (Erin Bethea).
» Главный актер фильма Кирк Камерон, (который также кроме игры в кино является еще и христианским евангелистом), следуя своим принципам, при съемках фильмов отказывается целовать других женщин, кроме своей жены.


Скриншоты

     
     

_________________
Человек – это канат, натянутый между животным и сверхчеловеком, – канат над пропастью.
В человеке ценно то, что он мост, а не цель. Фридрих Ницше


Last edited by Delia on 2012-04-07 09:40; edited 1 time in total
Other forum [Profile] [PM]
Display posts from previous:    
Reply to topic

The time now is: Today 01:42

All times are GMT + 3 Hours



You cannot post new topics in this forum
You cannot reply to topics in this forum
You cannot edit your posts in this forum
You cannot delete your posts in this forum
You cannot vote in polls in this forum
You cannot attach files in this forum
You cannot download files in this forum