Today is a free download without charge Download

Как Гонсукэ лису ловил (Виктория Спирягина) [2012, мультфильм, DVDScreener]

Reply to topic
 
Author
Message

Omen ®

Longevity: 7 years 11 months

Posts: 181087

Торрент-статистика

Post 10-Apr-2015 09:00

[Quote]

Как Гонсукэ лису ловил
Страна: РФ
Жанр: мультфильм
Продолжительность: 00:08:23
Год выпуска: 2012
Русские субтитры: нет
Режиссёр: Виктория Спирягина
Описание: Японская сказка об охотнике, который отправился в лес на поиски лисы-оборотня.
Доп. информация: Диплом жюри Открытого Фестиваля студенческих и дебютных фильмов «Святая Анна», Москва (Россия), 2013
Открытый фестиваль анимационного кино, Суздаль (Россия), 2013
Национальный кинофестиваль дебютов «Движение», Омск (Россия), 2013
Большой фестиваль мультфильмов, Москва (Россия), 2012
Качество: DVDScreener
Формат: AVI
Видео: DIVX, 720x504, 25fps, 1236kbps
Аудио: MPEG Layer 3, 48kHz, 2ch, 192kbps
Субтитры: отсутствуют

Подробные технические данные

Полное имя : Как Гонсукэ лису ловил.aviФормат : AVIФормат/Информация : Audio Video InterleaveРазмер файла : 86,3 МбайтПродолжительность : 8 м. 23 с.Общий поток : 1438 Кбит/секПрограмма кодирования : VirtualDubMod 1.5.10.3 | www.virtualdub-fr.org || (build 2550/release)Библиотека кодирования : VirtualDubMod build 2550/release
ВидеоИдентификатор : 0Формат : MPEG-4 VisualПрофиль формата : Advanced [email protected]Параметр BVOP формата : 1Параметр QPel формата : НетПараметр GMC формата : Без точки переходаПараметр матрицы формата : Default (H.263)Идентификатор кодека : DIVXИдентификатор кодека/Информация : Project MayoИдентификатор кодека/Подсказка : DivX 4Продолжительность : 8 м. 23 с.Битрейт : 1236 Кбит/секШирина : 720 пикселейВысота : 504 пикселяСоотношение сторон : 1,429Частота кадров : 25,000 кадров/секЦветовое пространство : YUVСубдискретизация насыщенности : 4:2:0Битовая глубина : 8 битТип развёртки : ПрогрессивнаяМетод сжатия : С потерямиБит/(Пиксели*Кадры) : 0.136Размер потока : 74,2 Мбайт (86%)Библиотека кодирования : XviD 1.2.1 (UTC 2008-12-04)
АудиоИдентификатор : 1Формат : MPEG AudioВерсия формата : Version 1Профиль формата : Layer 3Идентификатор кодека : 55Идентификатор кодека/Подсказка : MP3Продолжительность : 8 м. 23 с.Вид битрейта : ПостоянныйБитрейт : 192 Кбит/секКаналы : 2 каналаЧастота : 48,0 КГцМетод сжатия : С потерямиРазмер потока : 11,5 Мбайт (13%)Выравнивание : Соединение по промежуткамПродолжительность промежутка : 40 мс. (1,00 видеокадр)Время предзагрузки промежутка : 504 мс.Библиотека кодирования : LAME3.99rНастройки программы : -m s -V 4 -q 0 -lowpass 18.6 -b 192

Скриншоты



Other forum [Profile] [PM]
Display posts from previous:    
Reply to topic

The time now is: Today 03:10

All times are GMT + 3 Hours



You cannot post new topics in this forum
You cannot reply to topics in this forum
You cannot edit your posts in this forum
You cannot delete your posts in this forum
You cannot vote in polls in this forum
You cannot attach files in this forum
You cannot download files in this forum