Today is a free download without charge Download

Смертельная Гонка-Трилогия / Death Race-Trilogy (Пол У. С. Андерсон / Paul U. S. Anderson,Роэль Рейн / Roel Reyn) [2008,2010,2012 гг., США, Германия, Великобритания,ЮАР., Боевик,Триллер, DVD9]

Reply to topic
 
Author
Message

Стасмэн ®

Gender:

Longevity: 10 years

Posts: 133

Торрент-статистика

Post 05-Apr-2012 18:36

[Quote]

Смертельная Гонка-Трилогия / Death Race-Trilogy
Год выпуска: 2008,2010,2012
Страна: США ,Германия , Великобритания ,ЮАР
Жанр: Боевик,Триллер
Продолжительность: 05:03:01
Перевод: Профессиональный(дублированный)
Режиссер: Пол У. С. Андерсон / Paul U. S. Anderson,Роэль Рейн / Roel Reyn
В ролях: Джейсон Стэтхем, Джоан Аллен, Иэн МакШэйн, Тайрез Гибсон, Джейкоб Варгас, Роберт ЛеСардо....
Качество: DVD9
Формат: DVD Video
Видео кодек: MPEG2
Аудио кодек: DTS,AC3

Смертельная Гонка

Смертельная Гонка / Death RaceГод выпуска: 2008
Страна: США ,Германия , Великобритания
Жанр: Боевик,Триллер
Продолжительность: 01:46:04
Перевод: Профессиональный(дублированный)
Режиссер: Пол У. С. Андерсон / Paul U. S. Anderson
В ролях: Джейсон Стэтхем, Джоан Аллен, Иэн МакШэйн, Тайрез Гибсон, Джейкоб Варгас, Роберт ЛеСардо....
Описание: Трехкратный чемпион-гонщик Дженсен Эймс посажен в тюрьму за убийство, которого не совершал. Вместо того, чтобы выпустить его на свободу, тюремщики заставляют его вместе с самыми отъявленными преступниками участвовать в кровавом состязании. Оказавшись за рулем чудовищного автомобиля, оборудованного автоматами, огнеметами и гранатометами, этот отчаянный человек разрушит все на своем пути, чтобы выиграть самую зрелищную гонку на выживание на Земле.

Качество: DVD9
Формат: DVD Video
Видео кодек: MPEG2
Аудио кодек: DTS,AC3
Видео: PAL 16:9 (720x576) VBR Auto Letterboxed, ~ 25.000 fps; ~ 8893.91 kbps avg
Аудио:
Audio #1: Russian AC3, 3/2 (L,C,R,SL,SR)+LFE ch, 384 kbps, Delay 0 mSec
Audio #2: Russian DTS, 3/2 (L,C,R,SL,SR), 768 kbps, Delay 0 mSec

MediaInfo

Код:
Полное имя                               : G:\DVD\Смертельная Гонка 1,2 DVD9\Смертельная Гонка DVD9\VIDEO_TS\VTS_02_2.VOB
Формат                                   : MPEG-PS
Размер файла                             : 1024 Мбайт
Продолжительность                        : 16 м.
Режим общего битрейта                    : Переменный
Общий поток                              : 8773 Кбит/сек
Видео
Идентификатор                            : 224 (0xE0)
Формат                                   : MPEG Video
Версия формата                           : Version 2
Профиль формата                          : [email protected]
Параметр BVOP формата                    : Да
Параметр матрицы формата                 : Выборочная
Параметр GOP формата                     : M=3, N=12
Продолжительность                        : 16 м.
Вид битрейта                             : Переменный
Битрейт                                  : 7460 Кбит/сек
Максимальный битрейт                     : 9800 Кбит/сек
Ширина                                   : 720 пикселей
Высота                                   : 576 пикселей
Соотношение сторон                       : 16:9
Частота кадров                           : 25,000 кадров/сек
Стандарт вещания                         : PAL
Цветовое пространство                    : YUV
Субдискретизация насыщенности            : 4:2:0
Битовая глубина                          : 8 бит
Тип развёртки                            : Чересстрочная
Порядок развёртки                        : Верхнее поле первое
Метод сжатия                             : С потерями
Бит/(Пиксели*Кадры)                      : 0.720
Размер потока                            : 870 Мбайт (85%)
Аудио #1
Идентификатор                            : 189 (0xBD)-128 (0x80)
Формат                                   : AC-3
Формат/Информация                        : Audio Coding 3
Расширение режима                        : CM (complete main)
Режим смешивания                         : DVD-Video
Продолжительность                        : 16 м.
Вид битрейта                             : Постоянный
Битрейт                                  : 384 Кбит/сек
Каналы                                   : 6 каналов
Расположение каналов                     : Front: L C R, Side: L R, LFE
Частота                                  : 48,0 КГц
Битовая глубина                          : 16 бит
Метод сжатия                             : С потерями
Задержка видео                           : -784 мс.
Размер потока                            : 44,8 Мбайт (4%)
Аудио #2
Идентификатор                            : 189 (0xBD)-137 (0x89)
Формат                                   : DTS
Формат/Информация                        : Digital Theater Systems
Режим смешивания                         : DVD-Video
Продолжительность                        : 16 м.
Вид битрейта                             : Постоянный
Битрейт                                  : 755 Кбит/сек
Каналы                                   : 6 каналов
Расположение каналов                     : Front: L C R, Side: L R, LFE
Частота                                  : 48,0 КГц
Битовая глубина                          : 24 бит
Метод сжатия                             : С потерями
Задержка видео                           : -816 мс.
Размер потока                            : 88,0 Мбайт (9%)

DVDInfo

Код:
Title: Смертельная Гонка DVD9
Size: 6.80 Gb ( 7 133 162,00 KBytes ) - DVD-9
Enabled regions: 1, 2, 3, 4, 5, 6, 7, 8
VTS_01 :
  Play Length: 00:00:00
  Video: PAL 16:9 (720x576) VBR, Auto Letterboxed
VTS_02 :
  Play Length: 01:46:04+{01:46:04}+{01:46:04}
  Video: PAL 16:9 (720x576) VBR, Auto Letterboxed
  Audio:
      Russian, AC3, 3/2 (L,C,R,SL,SR)+LFE ch, 384 kbps, Delay 0 mSec
      Russian, DTS, 3/2 (L,C,R,SL,SR), 768 kbps, Delay 0 mSec
VTS_03 :
  Play Length: 00:01:47+{00:01:47}+{00:01:47}
  Video: PAL 16:9 (720x576) VBR, Auto Letterboxed
  Audio:
      Not specified (MPEG1, 2 ch)
VTS_04 :
  Play Length: 00:00:00
  Video: PAL 4:3 (720x576) VBR
VTS_05 :
  Play Length: 00:02:20+{00:02:20}+{00:02:20}
  Video: PAL 16:9 (720x576) VBR, Auto Letterboxed
  Audio:
      Not specified (LinearPCM, 2 ch)

Скриншоты

       

Смертельная Гонка 2

Смертельная гонка 2: Франкенштейн жив / Death Race 2Год выпуска: 2010
Страна: ЮАР
Жанр: Боевик,Триллер
Продолжительность: 01:36:12
Перевод: Профессиональный(дублированный)
Режиссер: Роэль Рейн / Roel Reyn
В ролях: Джейсон Стэтхем,Люк Госс,Лорен Коэн,Шон Бин,Винг Реймз,Танита Феникс,Патрик Листер,Доби Опаре....
Описание: Действие происходит в ближайшем будущем, когда экономика США начнёт своё снижение и на страну обрушится волна насилия. Чтобы сдержать постоянно растущее уголовное население создаются частные тюрьмы. Худшая из этих тюрем — Терминал Айленд, где заключенным приходится воевать с другими заключенными за свою жизнь в телевизионном шоу.

Качество: DVD9
Формат: DVD Video
Видео кодек: MPEG2
Аудио кодек: AC3
Видео: PAL 16:9 (720x576) VBR Auto Letterboxed, ~ 25.000 fps; ~ 8474.62 kbps avg
Аудио:
Audio #1: English AC3, 3/2 (L,C,R,SL,SR)+LFE ch, 384 kbps, Delay 0 mSec
Audio #2: Italiano AC3, 3/2 (L,C,R,SL,SR)+LFE ch, 384 kbps, Delay 0 mSec
Audio #3: Russian AC3, 3/2 (L,C,R,SL,SR)+LFE ch, 384 kbps, Delay 0 mSec
Audio #4: English AC3, 2/0 (L,R) ch, 192 kbps, Delay 0 mSec
Субтитры: русские,английские,итальянские....

MediaInfo

Код:
Полное имя                               : G:\DVD\Смертельная Гонка 1,2 DVD9\Смертельная Гонка 2 DVD9\VIDEO_TS\VTS_01_2.VOB
Формат                                   : MPEG-PS
Размер файла                             : 1024 Мбайт
Продолжительность                        : 17 м.
Режим общего битрейта                    : Переменный
Общий поток                              : 8040 Кбит/сек
Видео
Идентификатор                            : 224 (0xE0)
Формат                                   : MPEG Video
Версия формата                           : Version 2
Профиль формата                          : [email protected]
Параметр BVOP формата                    : Да
Параметр матрицы формата                 : Выборочная
Продолжительность                        : 17 м.
Вид битрейта                             : Переменный
Битрейт                                  : 6536 Кбит/сек
Максимальный битрейт                     : 9800 Кбит/сек
Ширина                                   : 720 пикселей
Высота                                   : 576 пикселей
Соотношение сторон                       : 16:9
Частота кадров                           : 25,000 кадров/сек
Стандарт вещания                         : PAL
Цветовое пространство                    : YUV
Субдискретизация насыщенности            : 4:2:0
Битовая глубина                          : 8 бит
Тип развёртки                            : Чересстрочная
Порядок развёртки                        : Верхнее поле первое
Метод сжатия                             : С потерями
Бит/(Пиксели*Кадры)                      : 0.630
Размер потока                            : 832 Мбайт (81%)
Аудио #1
Идентификатор                            : 189 (0xBD)-128 (0x80)
Формат                                   : AC-3
Формат/Информация                        : Audio Coding 3
Расширение режима                        : CM (complete main)
Режим смешивания                         : DVD-Video
Продолжительность                        : 17 м.
Вид битрейта                             : Постоянный
Битрейт                                  : 384 Кбит/сек
Каналы                                   : 6 каналов
Расположение каналов                     : Front: L C R, Side: L R, LFE
Частота                                  : 48,0 КГц
Битовая глубина                          : 16 бит
Метод сжатия                             : С потерями
Задержка видео                           : -624 мс.
Размер потока                            : 48,9 Мбайт (5%)
Аудио #2
Идентификатор                            : 189 (0xBD)-129 (0x81)
Формат                                   : AC-3
Формат/Информация                        : Audio Coding 3
Расширение режима                        : CM (complete main)
Режим смешивания                         : DVD-Video
Продолжительность                        : 17 м.
Вид битрейта                             : Постоянный
Битрейт                                  : 384 Кбит/сек
Каналы                                   : 6 каналов
Расположение каналов                     : Front: L C R, Side: L R, LFE
Частота                                  : 48,0 КГц
Битовая глубина                          : 16 бит
Метод сжатия                             : С потерями
Задержка видео                           : -624 мс.
Размер потока                            : 48,9 Мбайт (5%)
Аудио #3
Идентификатор                            : 189 (0xBD)-130 (0x82)
Формат                                   : AC-3
Формат/Информация                        : Audio Coding 3
Расширение режима                        : CM (complete main)
Режим смешивания                         : DVD-Video
Продолжительность                        : 17 м.
Вид битрейта                             : Постоянный
Битрейт                                  : 384 Кбит/сек
Каналы                                   : 6 каналов
Расположение каналов                     : Front: L C R, Side: L R, LFE
Частота                                  : 48,0 КГц
Битовая глубина                          : 16 бит
Метод сжатия                             : С потерями
Задержка видео                           : -624 мс.
Размер потока                            : 48,9 Мбайт (5%)
Аудио #4
Идентификатор                            : 189 (0xBD)-131 (0x83)
Формат                                   : AC-3
Формат/Информация                        : Audio Coding 3
Профиль формата                          : Dolby Digital
Расширение режима                        : CM (complete main)
Режим смешивания                         : DVD-Video
Продолжительность                        : 17 м.
Вид битрейта                             : Постоянный
Битрейт                                  : 192 Кбит/сек
Каналы                                   : 2 канала
Расположение каналов                     : Front: L R
Частота                                  : 48,0 КГц
Битовая глубина                          : 16 бит
Метод сжатия                             : С потерями
Задержка видео                           : -592 мс.
Размер потока                            : 24,5 Мбайт (2%)

DVDInfo

Код:
Title: Смертельная Гонка 2 DVD9
Size: 7.74 Gb ( 8 120 290,00 KBytes ) - DVD-9
Enabled regions: 1, 2, 3, 4, 5, 6, 7, 8
VTS_01 :
  Play Length: 01:36:12
  Video: PAL 16:9 (720x576) VBR, Auto Letterboxed
  Audio:
      English, AC3, 3/2 (L,C,R,SL,SR)+LFE ch, 384 kbps, Delay 0 mSec
      Italiano, AC3, 3/2 (L,C,R,SL,SR)+LFE ch, 384 kbps, Delay 0 mSec
      Russian, AC3, 3/2 (L,C,R,SL,SR)+LFE ch, 384 kbps, Delay 0 mSec
      English, AC3, 2/0 (L,R) ch, 192 kbps, Delay 0 mSec
  Subtitles:
      English
      Italiano
      Romanian
      Estonian
      Latvian
      Lithuanian
      Ukrainian
      English
      Italiano
      Italiano
      Russian
VTS_02 :
  Play Length: 00:00:23
  Video: PAL 16:9 (720x576) VBR, Auto Letterboxed
  Audio:
      English (Dolby AC3, 6 ch)
VTS_03 :
  Play Length: 00:00:14
  Video: PAL 16:9 (720x576) VBR, Auto Letterboxed
  Audio:
      English (Dolby AC3, 6 ch)
VTS_04 :
  Play Length: 00:00:00
  Video: PAL 16:9 (720x576) VBR, Auto Letterboxed
VTS_05 :
  Play Length: 00:05:48+00:06:37+00:09:39+00:07:01+00:05:43+{00:04:54}
  Video: PAL 16:9 (720x576) VBR, Auto Letterboxed
  Audio:
      English (Dolby AC3, 2 ch)
  Subtitles:
      English
      Italiano
      Russian
      Romanian
VTS_06 :
  Play Length: 00:00:12+00:01:52+00:00:09+00:02:27+00:02:29+00:00:09+00:01:09+00:02:27+00:00:08+00:00:08+00:00:08+00:00:08
  Video: PAL 16:9 (720x576) VBR, Auto Letterboxed
  Audio:
      English (Dolby AC3, 2 ch)
  Subtitles:
      English
      Italiano
      Russian
      Romanian
VTS_07 :
  Play Length: 00:00:00
  Video: PAL 16:9 (720x576) VBR, Auto Letterboxed
VTS_08 :
  Play Length: 00:00:49
  Video: PAL 4:3 (720x576) VBR
  Audio:
      English (Dolby AC3, 2 ch)
  Subtitles:
      English
      Italiano
      Russian
      Romanian

Скриншоты

       

Смертельная Гонка 3

Смертельная гонка 3: АД / Death Race 3: InfernoГод выпуска: 2012
Страна: США
Жанр: Боевик,Триллер
Продолжительность: 01:40:55
Перевод: Профессиональный(дублированный)
Режиссер: Роэль Рейн / Roel Reyn
В ролях: Люк Госс,Винг Реймз,Дэнни Трехо,Дюгрэй Скотт,Фредерик Колер,Танит Феникс,Робин Шоу,Хлуби Мбоя,Роксана Хейуорд,Барт Фаш....
Описание: Карл Лукас по прозвищу Франкенштейн — раскаявшийся преступник, легендарный участник жестокого и кровавого тюремного соревнования под названием Смертельная гонка. Чтобы обрести долгожданную свободу, ему осталось одержать лишь одну победу, но эта гонка опасна как никогда, ведь на этот раз она проходит в пустыне!

Качество: DVD9
Формат: DVD Video
Видео кодек: MPEG2
Аудио кодек: AC3
Видео: PAL 16:9 (720x576) VBR Auto Letterboxed, ~ 25.000 fps; ~ 9419.50 kbps avg
Аудио:
Audio #1: English AC3, 3/2 (L,C,R,SL,SR)+LFE ch, 384 kbps, Delay 0 mSec
Audio #2: Deutsch AC3, 3/2 (L,C,R,SL,SR)+LFE ch, 384 kbps, Delay 0 mSec
Audio #3: Italiano AC3, 3/2 (L,C,R,SL,SR)+LFE ch, 384 kbps, Delay 0 mSec
Audio #4: Russian AC3, 3/2 (L,C,R,SL,SR)+LFE ch, 384 kbps, Delay 0 mSec
Audio #5: Turkish AC3, 3/2 (L,C,R,SL,SR)+LFE ch, 384 kbps, Delay 0 mSec
Субтитры: русские,английские,итальянские....

MediaInfo

Код:
Полное имя                               : G:\WWW\TR-Downloads\DVD 5,9\Смертельная Гонка 1,2,3 DVD9\Смертельная Гонка 3 DVD9\VIDEO_TS\VTS_04_1.VOB
Формат                                   : MPEG-PS
Размер файла                             : 1024 Мбайт
Продолжительность                        : 15 м.
Режим общего битрейта                    : Переменный
Общий поток                              : 9497 Кбит/сек
Видео
Идентификатор                            : 224 (0xE0)
Формат                                   : MPEG Video
Версия формата                           : Version 2
Профиль формата                          : [email protected]
Параметр BVOP формата                    : Да
Параметр матрицы формата                 : Выборочная
Продолжительность                        : 15 м.
Вид битрейта                             : Переменный
Битрейт                                  : 7388 Кбит/сек
Максимальный битрейт                     : 9800 Кбит/сек
Ширина                                   : 720 пикселей
Высота                                   : 576 пикселей
Соотношение сторон                       : 16:9
Частота кадров                           : 25,000 кадров/сек
Стандарт вещания                         : PAL
Цветовое пространство                    : YUV
Субдискретизация насыщенности            : 4:2:0
Битовая глубина                          : 8 бит
Тип развёртки                            : Чересстрочная
Порядок развёртки                        : Верхнее поле первое
Метод сжатия                             : С потерями
Бит/(Пиксели*Кадры)                      : 0.713
Размер потока                            : 797 Мбайт (78%)
Аудио #1
Идентификатор                            : 189 (0xBD)-128 (0x80)
Формат                                   : AC-3
Формат/Информация                        : Audio Coding 3
Расширение режима                        : CM (complete main)
Параметр Endianness формата              : Big
Режим смешивания                         : DVD-Video
Продолжительность                        : 15 м.
Вид битрейта                             : Постоянный
Битрейт                                  : 384 Кбит/сек
Каналы                                   : 6 каналов
Расположение каналов                     : Front: L C R, Side: L R, LFE
Частота                                  : 48,0 КГц
Битовая глубина                          : 16 бит
Метод сжатия                             : С потерями
Размер потока                            : 41,4 Мбайт (4%)
Аудио #2
Идентификатор                            : 189 (0xBD)-129 (0x81)
Формат                                   : AC-3
Формат/Информация                        : Audio Coding 3
Расширение режима                        : CM (complete main)
Параметр Endianness формата              : Big
Режим смешивания                         : DVD-Video
Продолжительность                        : 15 м.
Вид битрейта                             : Постоянный
Битрейт                                  : 384 Кбит/сек
Каналы                                   : 6 каналов
Расположение каналов                     : Front: L C R, Side: L R, LFE
Частота                                  : 48,0 КГц
Битовая глубина                          : 16 бит
Метод сжатия                             : С потерями
Размер потока                            : 41,4 Мбайт (4%)
Аудио #3
Идентификатор                            : 189 (0xBD)-130 (0x82)
Формат                                   : AC-3
Формат/Информация                        : Audio Coding 3
Расширение режима                        : CM (complete main)
Параметр Endianness формата              : Big
Режим смешивания                         : DVD-Video
Продолжительность                        : 15 м.
Вид битрейта                             : Постоянный
Битрейт                                  : 384 Кбит/сек
Каналы                                   : 6 каналов
Расположение каналов                     : Front: L C R, Side: L R, LFE
Частота                                  : 48,0 КГц
Битовая глубина                          : 16 бит
Метод сжатия                             : С потерями
Размер потока                            : 41,4 Мбайт (4%)
Аудио #4
Идентификатор                            : 189 (0xBD)-131 (0x83)
Формат                                   : AC-3
Формат/Информация                        : Audio Coding 3
Расширение режима                        : CM (complete main)
Параметр Endianness формата              : Big
Режим смешивания                         : DVD-Video
Продолжительность                        : 15 м.
Вид битрейта                             : Постоянный
Битрейт                                  : 384 Кбит/сек
Каналы                                   : 6 каналов
Расположение каналов                     : Front: L C R, Side: L R, LFE
Частота                                  : 48,0 КГц
Битовая глубина                          : 16 бит
Метод сжатия                             : С потерями
Размер потока                            : 41,4 Мбайт (4%)
Аудио #5
Идентификатор                            : 189 (0xBD)-132 (0x84)
Формат                                   : AC-3
Формат/Информация                        : Audio Coding 3
Расширение режима                        : CM (complete main)
Параметр Endianness формата              : Big
Режим смешивания                         : DVD-Video
Продолжительность                        : 15 м.
Вид битрейта                             : Постоянный
Битрейт                                  : 384 Кбит/сек
Каналы                                   : 6 каналов
Расположение каналов                     : Front: L C R, Side: L R, LFE
Частота                                  : 48,0 КГц
Битовая глубина                          : 16 бит
Метод сжатия                             : С потерями
Размер потока                            : 41,4 Мбайт (4%)

DVDInfo

Код:
Title: Смертельная Гонка 3 DVD9
Size: 7.20 Gb ( 7 544 872,00 KBytes ) - DVD-9
Enabled regions: 1, 2, 3, 4, 5, 6, 7, 8
VTS_01 :
  Play Length: 00:00:25
  Video: PAL 16:9 (720x576) VBR, Auto Letterboxed
  Audio:
      English, AC3, 3/2 (L,C,R,SL,SR)+LFE ch, 384 kbps, Delay 0 mSec
VTS_02 :
  Play Length: 00:00:14
  Video: PAL 16:9 (720x576) VBR, Auto Letterboxed
  Audio:
      English, AC3, 3/2 (L,C,R,SL,SR)+LFE ch, 448 kbps, Delay 0 mSec
VTS_03 :
  Play Length: 00:00:00
  Video: PAL 16:9 (720x576) VBR, Auto Letterboxed
VTS_04 :
  Play Length: 01:40:55
  Video: PAL 16:9 (720x576) VBR, Auto Letterboxed
  Audio:
      English, AC3, 3/2 (L,C,R,SL,SR)+LFE ch, 384 kbps, Delay 0 mSec
      Deutsch, AC3, 3/2 (L,C,R,SL,SR)+LFE ch, 384 kbps, Delay 0 mSec
      Italiano, AC3, 3/2 (L,C,R,SL,SR)+LFE ch, 384 kbps, Delay 0 mSec
      Russian, AC3, 3/2 (L,C,R,SL,SR)+LFE ch, 384 kbps, Delay 0 mSec
      Turkish, AC3, 3/2 (L,C,R,SL,SR)+LFE ch, 384 kbps, Delay 0 mSec
  Subtitles:
      English
      Deutsch
      Italiano
      Russian
      Turkish
      Bulgarian
      Greek
      Romanian
      Estonian
      Latvian
      Lithuanian
      Deutsch
      Italiano
      Russian
      Turkish

Скриншоты

       


Last edited by Стасмэн on 2012-04-06 09:35; edited 1 time in total
Other forum [Profile] [PM]

Стасмэн ®

Gender:

Longevity: 10 years

Posts: 133

Торрент-статистика

Post 16-Mar-2013 12:19 (after 11 months 10 days)

[Quote]

Торрент обновлён,добавлено "Смертельная Гонка 3".
Other forum [Profile] [PM]
Similar theme
Forum Topic Author Torrent Replies Last Post
./templates/default/images/folder_dl.gif Техническая и научно-популярная литература Джина Колата | Грипп. В поисках смертельного вируса (2013) [PDF] UndegraundMen
1 | 0

0 | 616

1

2013-10-07 11:00
UndegraundMen Latest
./templates/default/images/folder_dl.gif Техническая и научно-популярная литература Юрген Роувер | Субмарины, несущие смерть. Победы подводных лодок стран гитлеровской Оси (2004) [PDF] Omen
1 | 0

0 | 742

2

2015-04-16 20:53
Omen Latest
./templates/default/images/folder_dl.gif Антология зарубежного кино Жажда смерти [Пенталогия] / Death Wish [Pentalogy] (Майкл Уиннер, Дж. Ли Томпсон, Аллан Голдштейн) [1974–1993, боевик, триллер, DVDRip] MVO, AVO, VO DED
1 | 0

1 | 3373

1

2015-11-13 22:52
DED Latest
Display posts from previous:    
Reply to topic

The time now is: Today 02:15

All times are GMT + 3 Hours



You cannot post new topics in this forum
You cannot reply to topics in this forum
You cannot edit your posts in this forum
You cannot delete your posts in this forum
You cannot vote in polls in this forum
You cannot attach files in this forum
You cannot download files in this forum